Browse Collections Artists Sources   Search Dates

Add Show    List Management    Help


Grateful Dead 10/14/83
Hartford Civic Center, Hartford, CT
Comments Add Comment    Source Collectors    Add to Collection    Add to Want List    History
Source # 102056 Other Sources
Entered by Matt Vernon
Checksums ffp , flac-md5
Disc Counts 2 / 3
Media Size
Date Circulated
Date Added
10/15/2009
10/16/2009
Source Summary flac16; Nakamichi CM-300 (CP-1) x2 > Cassette Master (Sony TCD5M/Maxell UDXLII C-90); Cassette Master (Nakamichi DR-1) > Korg MR-1000 (1-bit/5.6MHz) > Audiogate (1-bit/5.6MHz > 16-bit/44.1KHz) > cdwav (edits); Recorded by Bob Morris 
  Archive
Source Information - Download Text | Download Zip
Grateful Dead - October 14, 1983
Hartford Civic Center - Hartford, Connecticut

Nakamichi CM-300 (CP-1) x2 > Cassette Master
(Sony TCD5M/Maxell UDXLII C-90)

Cassette Master (Nakamichi DR-1) > Korg MR-1000 (1-bit/5.6MHz) >
Audiogate (1-bit/5.6MHz > 16-bit/44.1KHz) > cdwav (edits)

Disc One

Set 1:

01 tuning
02 Alabama Getaway ->
03 Greatest Story Ever Told
04 They Love Each Other
05 Mama Tried ->
06 Big River
07 Althea ->
08 C.C. Rider
09 Tennessee Jed
10 Hell in a Bucket ->
11 Day Job

Disc Two

Set 2:

01 tuning
02 Scarlet Begonias ->
03 Fire on the Mountain
04 Estimated Prophet ->
05 Eyes of the World ->
06 Drums ->

Disc Three

2nd Set (cont)

01 Space ->
02 Spanish Jam ->
03 The Other One ->
04 Stella Blue ->
05 Sugar Magnolia

Encore:
06 tuning
07 U.S. Blues

Notes - Tape flips patched in intros to C.C. Rider (0:09-0:50)
and Eyes (0:16-0:25). Tape flip between Drums & Space.
Patch source: shnid 20023 Beyer M160s (Soundforge 9.0).
Recorded by Bob Morris -- thanks to Sam for help.
Transferred, edited & patched by Bob M 9/09.
Flaced and shared by Chuck T./Crazyfingers



shntool 3.0.4
Copyright (C) 2000-2007 Jason Jordan

   length     expanded size    cdr  WAVE problems  fmt   ratio  filename
    1:17.31       13655756 B   ---   --   ---xx   flac  0.5421  gd83-10-14d1t01.flac
    5:56.46       62906636 B   ---   --   ---xx   flac  0.5798  gd83-10-14d1t02.flac
    4:13.59       44768012 B   ---   --   ---xx   flac  0.5872  gd83-10-14d1t03.flac
    9:23.59       99452012 B   ---   --   ---xx   flac  0.5672  gd83-10-14d1t04.flac
    2:45.44       29209532 B   ---   --   ---xx   flac  0.5892  gd83-10-14d1t05.flac
    6:24.36       67822316 B   ---   --   ---xx   flac  0.5927  gd83-10-14d1t06.flac
    8:45.36       92694716 B   ---   --   ---xx   flac  0.5739  gd83-10-14d1t07.flac
    8:57.46       94835036 B   ---   --   ---xx   flac  0.5855  gd83-10-14d1t08.flac
    9:25.31       99738956 B   ---   --   ---xx   flac  0.5628  gd83-10-14d1t09.flac
    5:44.31       60754556 B   ---   --   ---xx   flac  0.6080  gd83-10-14d1t10.flac
    5:45.46       60966236 B   ---   --   ---xx   flac  0.6152  gd83-10-14d1t11.flac
    0:35.35        6256364 B   ---   --   ---xx   flac  0.5187  gd83-10-14d2t01.flac
   14:09.24      149820092 B   ---   --   ---xx   flac  0.5861  gd83-10-14d2t02.flac
   16:04.13      170080220 B   ---   --   ---xx   flac  0.5903  gd83-10-14d2t03.flac
   12:52.01      136183196 B   ---   --   ---xx   flac  0.5767  gd83-10-14d2t04.flac
   17:27.53      184815500 B   ---   --   ---xx   flac  0.5957  gd83-10-14d2t05.flac
    5:43.19       60549932 B   ---   --   ---xx   flac  0.5438  gd83-10-14d2t06.flac
    4:59.10       52767164 B   ---   --   ---xx   flac  0.4800  gd83-10-14d3t01.flac
    3:37.64       38429372 B   ---   --   ---xx   flac  0.4907  gd83-10-14d3t02.flac
    9:57.55      105440204 B   ---   --   ---xx   flac  0.5603  gd83-10-14d3t03.flac
    8:57.13       94757420 B   ---   --   ---xx   flac  0.5407  gd83-10-14d3t04.flac
    9:25.71       99833036 B   ---   --   ---xx   flac  0.6141  gd83-10-14d3t05.flac
    0:20.46        3636236 B   ---   --   ---xx   flac  0.4804  gd83-10-14d3t06.flac
    5:22.44       56904332 B   ---   --   ---xx   flac  0.5913  gd83-10-14d3t07.flac
  178:13.13     1886276832 B                            0.5765  (24 files)
Show Checksums
ffp
gd83-10-14d1t01.flac:a19b5e228140d33b0b33f721b154d40a
gd83-10-14d1t02.flac:e53d0e286b2ff3745c23bc1286e474be
gd83-10-14d1t03.flac:c95a5f98443826dcf827a2ef05d951b0
gd83-10-14d1t04.flac:228b4c2fe6793d14f0715073465d154b
gd83-10-14d1t05.flac:d58a1efea9a186732298aba06850af7e
gd83-10-14d1t06.flac:440b1687277e35744df82db2ded689e9
gd83-10-14d1t07.flac:dd008463928a25510e00cc2e957320b7
gd83-10-14d1t08.flac:8928e939fe94bcab497c09ca258176cb
gd83-10-14d1t09.flac:566d1f19e7e07c05bf22c698321e2fca
gd83-10-14d1t10.flac:fd8f78f996df860d1f109ec69cf24b3e
gd83-10-14d1t11.flac:a3f07074c61d14517a72681f80238e2e
gd83-10-14d2t01.flac:689cbe2d8fe0f7e1dd59cd1e315842c5
gd83-10-14d2t02.flac:820d6f16f04b708ed0171daada0205b3
gd83-10-14d2t03.flac:5d406ffd3cb52c9cd4bc37b8da30f272
gd83-10-14d2t04.flac:37f3234928235c1a135a39dc76b62707
gd83-10-14d2t05.flac:e957ecf1b5b022641af5493e98c42b30
gd83-10-14d2t06.flac:3577719c856481a971fc80c77f8a748f
gd83-10-14d3t01.flac:5b282cadd4c930b887a22e2372620149
gd83-10-14d3t02.flac:37903af6050d4ca388ca552caed8153b
gd83-10-14d3t03.flac:6a6cfec5dae7728ec0e2a14abc9cffbe
gd83-10-14d3t04.flac:b8c680ecef0a03aa0ceed6ab8f3ef716
gd83-10-14d3t05.flac:51f4cb588b5574d1c61e39ea2b5ae548
gd83-10-14d3t06.flac:40e126555194f7ba6305b484f502b08f
gd83-10-14d3t07.flac:46c2d5d94b1ce9fb3e234ff6ce71f983
flac-md5
431539a99d34eee1e1084034d8267b2f *gd83-10-14d1t01.flac
28cca92e0d9f4a3bf6de392524e5e0c7 *gd83-10-14d1t02.flac
f179118f5be3f412f1a112c8455d729c *gd83-10-14d1t03.flac
b44541df5a6881b01b7a9d85854349e0 *gd83-10-14d1t04.flac
c0d991bec35816c92f60acd4ddbf58e2 *gd83-10-14d1t05.flac
a2cba5f39ea64d3969fa97cf19667768 *gd83-10-14d1t06.flac
9e2cb10308c489ab6bceef342c764db3 *gd83-10-14d1t07.flac
e8df5b0e821a5c127e433fc8bc998d6d *gd83-10-14d1t08.flac
efe1127ae21c60cd4bcee6753a02e1d8 *gd83-10-14d1t09.flac
ba739fa4e37bb150c4867dfa19435e89 *gd83-10-14d1t10.flac
dcaa2acade5643ff4e92f0cd8eace4ca *gd83-10-14d1t11.flac
5deb47e4aad4625fdceb6e4ba01ed4dc *gd83-10-14d2t01.flac
fff625a4123668aa0494815e8abd2f79 *gd83-10-14d2t02.flac
a9c9c7b6df71de0fbb99c34cf4ed70f3 *gd83-10-14d2t03.flac
d9c806c3407c46b0d7e6ffc532119841 *gd83-10-14d2t04.flac
4ad431b4dca64d2816773c78142b06fd *gd83-10-14d2t05.flac
5ef3e2b3d05a6a71afc22672610a32c6 *gd83-10-14d2t06.flac
1273535dfd0cab76c49a06cc542bab11 *gd83-10-14d3t01.flac
ee3130fde8053780c3f167c13295c121 *gd83-10-14d3t02.flac
f27bcd94a627eba8dc50549c18bc1acb *gd83-10-14d3t03.flac
f6c24c79eac576fc13b8d60252ca4194 *gd83-10-14d3t04.flac
ea6ceb76375a4674c08ea1ab1f291472 *gd83-10-14d3t05.flac
ea8861191cde826e21f0af0da78e4fbc *gd83-10-14d3t06.flac
3ce17f5d39279cc4f994f53aa64afd2b *gd83-10-14d3t07.flac

Comments
Add Comment
Other Sources (comments)
3 ATM 11 (tapers section) >... (0) Ficca FOB Sony TCD5M with 2... (1) 2 Nak 700's>Sony... (4) flac16; Lineage:... (0) flac16; Recording... (0) flac24;nak 300/cp4... (1) flac24; Nakamichi... (0) flac24; Updated... (0) flac16; AUD:... (0) flac24; Master... (0) flac16; Master... (0) flac24; Partial Set... (0) flac16; Partial Set... (0)
Date User Comment