Browse Collections Artists Sources   Search Dates

Add Show    List Management    Help


Grateful Dead 10/18/83
Cumberland County Civic Center, Portland, ME
Comments Add Comment    Source Collectors    Add to Collection    Add to Want List    History
Source # 102059 Other Sources
Entered by Matt Vernon
Checksums ffp , flac-md5
Disc Counts 2 / 3
Media Size
Date Circulated
Date Added
10/15/2009
10/16/2009
Source Summary flac16; (FOB) Nakamichi CM-300 (CP-1) x2 > Cassette Master (Sony TCD5M/Maxell UDXLII C-90); Cassette Master (Nakamichi DR-1) > Korg MR-1000 (1-bit/5.6MHz) > Audiogate (1-bit/5.6MHz > 16-bit/44.1KHz) > cdwav (edits); Recorded FOB center by Bob Morris 
  Archive
Source Information - Download Text | Download Zip
Grateful Dead - October 18, 1983
Cumberland County Civic Center - Portland, Maine

(FOB) Nakamichi CM-300 (CP-1) x2 > Cassette Master
(Sony TCD5M/Maxell UDXLII C-90)

Cassette Master (Nakamichi DR-1) > Korg MR-1000 (1-bit/5.6MHz) >
Audiogate (1-bit/5.6MHz > 16-bit/44.1KHz) > cdwav (edits)

Disc One

Set 1:

01 tuning
02 Jack Straw
03 They Love Each Other
04 Me & My Uncle ->
05 Mexicali Blues
06 DuPree's Diamond Blues
07 C.C. Rider
08 tuning
09 Althea
10 Lazy Lightnin' ->
11 Supplication ->
12 Might As Well

Disc Two

Set 2:

01 China Cat Sunflower ->
02 I Know You Rider

Set 2 (cont.):

Disc Three

01 Estimated Prophet ->
02 He's Gone ->
03 Drums ->
04 Space ->
05 Not Fade Away ->
06 Black Peter ->
07 Around & Around ->
08 Sugar Magnolia

Encore:
09 U.S. Blues

Notes - Tape flip between Drums and Space.
Recorded FOB center by Bob Morris -- thanks to Sam for help.
Transferred and edited by Bob M 9/09.
Flaced and shared by Chuck T./Crazyfingers


shntool 3.0.4
Copyright (C) 2000-2007 Jason Jordan

    length     expanded size    cdr  WAVE problems  fmt   ratio  filename
     2:10.00       22932044 B   ---   --   ---xx   flac  0.5152  gd83-10-18d1t01.flac
     6:48.36       72055916 B   ---   --   ---xx   flac  0.6255  gd83-10-18d1t02.flac
     8:57.15       94762124 B   ---   --   ---xx   flac  0.5913  gd83-10-18d1t03.flac
     2:56.44       31149932 B   ---   --   ---xx   flac  0.6200  gd83-10-18d1t04.flac
     5:48.05       61399004 B   ---   --   ---xx   flac  0.6148  gd83-10-18d1t05.flac
     6:22.67       67542428 B   ---   --   ---xx   flac  0.6074  gd83-10-18d1t06.flac
     9:00.67       95413628 B   ---   --   ---xx   flac  0.6133  gd83-10-18d1t07.flac
     0:23.34        4137212 B   ---   --   ---xx   flac  0.4823  gd83-10-18d1t08.flac
    10:29.13      110986220 B   ---   --   ---xx   flac  0.5848  gd83-10-18d1t09.flac
     3:43.28       39403100 B   ---   --   ---xx   flac  0.6306  gd83-10-18d1t10.flac
     7:54.62       83759468 B   ---   --   ---xx   flac  0.6310  gd83-10-18d1t11.flac
     4:28.70       47439884 B   ---   --   ---xx   flac  0.6440  gd83-10-18d1t12.flac
     9:12.58       97509260 B   ---   --   ---xx   flac  0.5858  gd83-10-18d2t01.flac
     5:48.58       61523660 B   ---   --   ---xx   flac  0.5931  gd83-10-18d2t02.flac
    11:38.08      123146060 B   ---   --   ---xx   flac  0.5982  gd83-10-18d3t01.flac
     9:14.56       97857356 B   ---   --   ---xx   flac  0.5628  gd83-10-18d3t02.flac
     9:36.10      101629964 B   ---   --   ---xx   flac  0.5626  gd83-10-18d3t03.flac
     9:46.08      103389260 B   ---   --   ---xx   flac  0.5032  gd83-10-18d3t04.flac
     9:21.68       99120380 B   ---   --   ---xx   flac  0.5849  gd83-10-18d3t05.flac
     8:14.43       87242780 B   ---   --   ---xx   flac  0.5722  gd83-10-18d3t06.flac
     3:37.62       38424668 B   ---   --   ---xx   flac  0.6229  gd83-10-18d3t07.flac
     9:55.59      105096812 B   ---   --   ---xx   flac  0.6366  gd83-10-18d3t08.flac
     5:15.09       55587212 B   ---   --   ---xx   flac  0.6187  gd83-10-18d3t09.flac
   160:45.55     1701508372 B                            0.5932  (23 files)
Show Checksums
ffp
gd83-10-18d1t01.flac:34cf92de45d5fb398be8163afe304931
gd83-10-18d1t02.flac:214abde90d0e2ec6847cfa9e3f0782c6
gd83-10-18d1t03.flac:133aed4115737f96272c88f13dd6e910
gd83-10-18d1t04.flac:78dd6d04c3c07f94281deb876f02a055
gd83-10-18d1t05.flac:059df0f8dcca125821c8572b976ba4b8
gd83-10-18d1t06.flac:767c3576e9e2142165786cc197cb0c60
gd83-10-18d1t07.flac:2d019444f05f9f5a73ea1bcad8ccef72
gd83-10-18d1t08.flac:9057eba6ceaea32506eb1b05cb78c4ca
gd83-10-18d1t09.flac:f617b4145ea66ed80f4d0abcf85ec071
gd83-10-18d1t10.flac:3856f0accef6aa172a9a32baa24bcc23
gd83-10-18d1t11.flac:a246cdf1bbafd04c969d657a6e512abb
gd83-10-18d1t12.flac:618be933869954ffb47b861febee7311
gd83-10-18d2t01.flac:37f9162ea50579ddb20b63c8072a583f
gd83-10-18d2t02.flac:b8ab56803ddc6d98fcb7c411f2831437
gd83-10-18d3t01.flac:f44929b7d6ae13515b750385930f6478
gd83-10-18d3t02.flac:6be485b3f0a805159fbacc8309b896c7
gd83-10-18d3t03.flac:b82f34aee4f4e4175e5281d9cb303890
gd83-10-18d3t04.flac:648a146290183aa86ba4fbfc96a3760d
gd83-10-18d3t05.flac:14cfa0ecb3de244a6f9201a6c0cc652a
gd83-10-18d3t06.flac:4050625fa3150ea238045a92f7e78b67
gd83-10-18d3t07.flac:64c7a89b313cdc4cd057f1c6e8a3e396
gd83-10-18d3t08.flac:c8f311b3ffcd5a6155c5669ae43dd32b
gd83-10-18d3t09.flac:7f203e06fa90512d96220f82f8eff682
flac-md5
16650d1ad2b3eba8b5d775de19fb2c0c *gd83-10-18d1t01.flac
0cfb0a5b5a4a07205c6be17ffb7bfcde *gd83-10-18d1t02.flac
8f7852350e2d564592d055cabae513aa *gd83-10-18d1t03.flac
801c8cadab048f191d4bf0a40bd6557d *gd83-10-18d1t04.flac
0bfc21204ace2893a797cef4dbb8bd9f *gd83-10-18d1t05.flac
66e67e5c5455e3e616ff2d306b464ce5 *gd83-10-18d1t06.flac
02235fda45517b15bbbe3694cccd32ac *gd83-10-18d1t07.flac
e7fa1b97f6fce2d4e59eeb506d1605c8 *gd83-10-18d1t08.flac
764a4eb46fb6e7f0f00b593f10fb34d9 *gd83-10-18d1t09.flac
2d98a4e7e3c647c4e479b607ad0527e9 *gd83-10-18d1t10.flac
5a092675d7c4cc0ccf5890bc914ccd83 *gd83-10-18d1t11.flac
586e8c013b8d549ca8e1598219ca3ef6 *gd83-10-18d1t12.flac
40f65c6b944e7a66a554eb83da9170a2 *gd83-10-18d2t01.flac
5190279964a439cf99c3ce8307bb56e7 *gd83-10-18d2t02.flac
bc6bf394ece420fbfb9d5951c6e1b12c *gd83-10-18d3t01.flac
a0d1778296d5192129da3c5e0f795272 *gd83-10-18d3t02.flac
3e0a04c4542a5556c8da72a3211dc393 *gd83-10-18d3t03.flac
30dd7216e8503e0abbe141668bbb744a *gd83-10-18d3t04.flac
1438517aaf6e2aa503cb41ed54eb6373 *gd83-10-18d3t05.flac
51e54b1d798074fe194a072c95c1937e *gd83-10-18d3t06.flac
a06b6e0de2fd1ea8b7e0bcacb139324e *gd83-10-18d3t07.flac
c9f1e73a492fffb5623bf5bdb67a3fad *gd83-10-18d3t08.flac
9b0edd54dc21369068efdf9e5c8a89cc *gd83-10-18d3t09.flac

Comments
Add Comment
Other Sources (comments)
FOB-AUD> MC> CDR; via Paul... (0) flac16; Set One... (0) flac16; Recording... (0) flac16; Lineage:... (0) flac24; (FOB)... (0) flac16; Source: 2... (0) flac16; 3 - Nak... (0) flac24; lineage:... (0) flac16; Master... (0) flac24; Master... (0) flac24; Recording... (0) flac16; Recording... (0) flac1648; Master... (0)
Date User Comment