Browse Collections Artists Sources   Search Dates

Add Show    List Management    Help


Grateful Dead 10/21/83
The Centrum, Worcester, MA
Comments Add Comment    Source Collectors    Add to Collection    Add to Want List    History
Source # 102063 Other Sources
Entered by Matt Vernon
Checksums flac-md5 , ffp
Disc Counts 2 / 3
Media Size
Date Circulated
Date Added
10/15/2009
10/16/2009
Source Summary flac16; Nakamichi CM-300 (CP-1) x2 > Cassette Master (Sony TCD5M/Maxell UDXLII C-90); Cassette Master (Nakamichi DR-1) > Korg MR-1000 (1-bit/5.6MHz) > Audiogate (1-bit/5.6MHz > 16-bit/44.1KHz) > cdwav (edits); Recorded by Bob Morris 
  Archive
Source Information - Download Text | Download Zip
Grateful Dead - October 21, 1983
Centrum - Worcester, Massachusetts

Nakamichi CM-300 (CP-1) x2 > Cassette Master
(Sony TCD5M/Maxell UDXLII C-90)

Cassette Master (Nakamichi DR-1) > Korg MR-1000 (1-bit/5.6MHz) >
Audiogate (1-bit/5.6MHz > 16-bit/44.1KHz) > cdwav (edits)

Disc One

Set 1:

01 tuning
02 The Music Never Stopped
03 Loser
04 C.C. Rider
05 Cumberland Blues
06 Cassidy
07 tuning
08 Ramble On Rose
09 My Brother Esau
10 Big Railroad Blues ->
11 The Promised Land

Disc Two

Set 2:

01 Scarlet Begonias ->
02 Fire on the Mountain

Disc Three

Set 2 (cont.):

01 tuning
02 Uncle John's Band ->
03 Playing in the Band ->
04 Drums ->
05 Space ->
06 Truckin' ->
07 Wharf Rat ->
08 I Need A Miracle ->
09 A Touch of Gray

Encore:
10 Johnny B. Goode

Notes - Tape flip between Drums and Space.
Recorded by Bob Morris -- thanks to Sam for help.
Transferred and edited by Bob M 9/09.
Flaced and shared by Chuck T./Crazyfingers

shntool 3.0.4
Copyright (C) 2000-2007 Jason Jordan

    length     expanded size    cdr  WAVE problems  fmt   ratio  filename
     0:47.12        8319068 B   ---   --   ---xx   flac  0.5115  gd83-10-21d1t01.flac
    10:15.53      108610700 B   ---   --   ---xx   flac  0.5814  gd83-10-21d1t02.flac
     6:57.08       73577660 B   ---   --   ---xx   flac  0.5747  gd83-10-21d1t03.flac
     8:45.15       92645324 B   ---   --   ---xx   flac  0.5859  gd83-10-21d1t04.flac
     8:15.58       87454460 B   ---   --   ---xx   flac  0.5847  gd83-10-21d1t05.flac
     5:56.06       62812556 B   ---   --   ---xx   flac  0.6070  gd83-10-21d1t06.flac
     0:20.21        3577436 B   ---   --   ---xx   flac  0.4860  gd83-10-21d1t07.flac
     7:28.39       79118972 B   ---   --   ---xx   flac  0.5925  gd83-10-21d1t08.flac
     5:16.01       55744796 B   ---   --   ---xx   flac  0.5928  gd83-10-21d1t09.flac
     7:28.58       79163660 B   ---   --   ---xx   flac  0.6273  gd83-10-21d1t10.flac
     4:45.72       50443388 B   ---   --   ---xx   flac  0.6306  gd83-10-21d1t11.flac
    12:43.52      134715548 B   ---   --   ---xx   flac  0.6072  gd83-10-21d2t01.flac
    15:51.54      167883452 B   ---   --   ---xx   flac  0.6221  gd83-10-21d2t02.flac
     1:13.52       12999548 B   ---   --   ---xx   flac  0.5458  gd83-10-21d3t01.flac
     8:21.66       88531676 B   ---   --   ---xx   flac  0.6446  gd83-10-21d3t02.flac
    11:13.28      118783100 B   ---   --   ---xx   flac  0.6039  gd83-10-21d3t03.flac
     8:25.53       89206700 B   ---   --   ---xx   flac  0.5451  gd83-10-21d3t04.flac
    15:21.27      162527948 B   ---   --   ---xx   flac  0.5033  gd83-10-21d3t05.flac
     7:48.00       82555244 B   ---   --   ---xx   flac  0.6538  gd83-10-21d3t06.flac
     9:42.18      102707180 B   ---   --   ---xx   flac  0.5879  gd83-10-21d3t07.flac
     3:32.08       37415660 B   ---   --   ---xx   flac  0.6454  gd83-10-21d3t08.flac
     6:11.03       65451500 B   ---   --   ---xx   flac  0.6608  gd83-10-21d3t09.flac
     4:20.04       45873452 B   ---   --   ---xx   flac  0.6445  gd83-10-21d3t10.flac
   171:01.33     1810119028 B                            0.5968  (23 files)
Show Checksums
flac-md5
7dc6b993a0e07e7521a7602d91a5328e *gd83-10-21d1t01.flac
32ba54f2c626445cb809f5d74eb6f7cb *gd83-10-21d1t02.flac
027de43fe7c45a03f2ea13ba9120bfa1 *gd83-10-21d1t03.flac
050b65f762e728cc4acae15b92878eb4 *gd83-10-21d1t04.flac
fdfa4bcbc42a283c61e9040777cb6f99 *gd83-10-21d1t05.flac
8ce8396af3a0e85b6c5632f62defae4e *gd83-10-21d1t06.flac
b014457c0f95df80f633c064dece163e *gd83-10-21d1t07.flac
3ef5c14577b8ed249f2e5ab9fe67bf00 *gd83-10-21d1t08.flac
94368641c21934610743c4a8412205bd *gd83-10-21d1t09.flac
1b48cf27a0e6a6bed665547f72b0a2b1 *gd83-10-21d1t10.flac
1894496fef0a5ef2bd870ad271ec7cb3 *gd83-10-21d1t11.flac
595a19c91b47a9ccd3cd87d7591b588e *gd83-10-21d2t01.flac
bd91a333e3261c0cb7d89f1c3b5f1755 *gd83-10-21d2t02.flac
d639aef9d32c5990d1cb5ad05e084ac0 *gd83-10-21d3t01.flac
7ac8415bd62240cf7bb8e20a22dff87f *gd83-10-21d3t02.flac
51749414a6900338efca41ef86a684c8 *gd83-10-21d3t03.flac
48bcdddd13d5b10bf3044fdce524d049 *gd83-10-21d3t04.flac
f142420ffc4bc9dd70862a69b7a09992 *gd83-10-21d3t05.flac
64e59d82a8886a8d1f97845162534529 *gd83-10-21d3t06.flac
39fea018f117a2f04be5e6f96abecdca *gd83-10-21d3t07.flac
87f9f28bc58c963073d4ca658fc8d2f7 *gd83-10-21d3t08.flac
ae805e150ec2340ac3eb47d41cc7a161 *gd83-10-21d3t09.flac
9089d3be8320979279c430e1482c98d9 *gd83-10-21d3t10.flac
ffp
gd83-10-21d1t01.flac:2811e8a923e85b94d8220dd50e121e70
gd83-10-21d1t02.flac:7776e1cdcd22493f6f19b9a2ffefaa02
gd83-10-21d1t03.flac:64a7125836353e16f44ff18dfbab885b
gd83-10-21d1t04.flac:1af6d1428586007f1ca1881dfa0408ef
gd83-10-21d1t05.flac:3d22fc92cfebc085c95e81e3dcabc9e5
gd83-10-21d1t06.flac:24b5679bd6bf811efe0d2d607e804857
gd83-10-21d1t07.flac:4a4ba2161c8e3265861dbc800467bde0
gd83-10-21d1t08.flac:b3f976c0b271c6641e76a31b98d4d2cf
gd83-10-21d1t09.flac:756280ded4cdf17589c21968a216c58d
gd83-10-21d1t10.flac:643dac672f145fbfef7bfcb4e6534f13
gd83-10-21d1t11.flac:6fd345d98951f7ebaaf81f132f6e18ac
gd83-10-21d2t01.flac:7d8953f49dc2d5b6ab98d720362b9d72
gd83-10-21d2t02.flac:6b7f05a738301d7b295b28206fccaf68
gd83-10-21d3t01.flac:d567b3ece6edb8e8fc598eb5dbf0826c
gd83-10-21d3t02.flac:d8898e66bdb2fae754d9918d97aa0850
gd83-10-21d3t03.flac:fb77858e073062a2641db882497ca468
gd83-10-21d3t04.flac:f6a3dc73fc84d344720a5ee6601d50b1
gd83-10-21d3t05.flac:7296aca4fb601de9ec40c0d5c62aa272
gd83-10-21d3t06.flac:d6fde40b9ba23c57ac29138391896867
gd83-10-21d3t07.flac:b3908c577d5a050cdd02e102d6b0fdbb
gd83-10-21d3t08.flac:dc814b12b63f8df1308b4f3235a51db9
gd83-10-21d3t09.flac:a1a4f0346c6015b5481913fb461f5c45
gd83-10-21d3t10.flac:202da5f843f9d5ddc58074e03c4481c0

Comments
Add Comment
Other Sources (comments)
FOB (2nd row, dead center)... (5) Master Soundboard PCM >... (0) SBD > PCM > Dat X 3 > CDR;... (0) Jay Ashley (Bertha)... (0) FOB Sony TCD5M with 2 Beyer... (1) SBD>>PCM>>Dat>>CDR>>SHN>>DA... (0) flac16; AKG D224E >... (1) flac16; Lineage:... (0) flac16; Matrix by... (0) flac24; Nakamichi... (0) flac16; Source: 2... (0) flac24; AUD: 2 Beyer... (0) flac24; lineage:... (0) flac16; Master... (0) flac24; Master... (0) flac24; Recording... (0) flac16; Recording... (0) flac16; Jeff... (0)
Date User Comment