Browse Collections Artists Sources   Search Dates

Add Show    List Management    Help


Grateful Dead 05/13/81
Providence Civic Center, Providence, RI
Comments Add Comment    Source Collectors    Add to Collection    Add to Want List    History
Source # 102180 Other Sources
Entered by Gary Field
Checksums ffp , flac-md5
Disc Counts 0 / 0
Media Size
Date Circulated
Date Added
10/27/2009
10/26/2009
Source Summary flac24; AUD: 3x Nakamichi CM-300 w/CP-1 cardioids > Nakamichi 550. Mics on stand, 25th row right center. Taped by Tim Friend & Joe Morrone. MAC copied to 1st Gen Maxell XL-II 90's on Nakamichi 680ZX. Transfer: 1st Gen cassettes > Nakamichi DR-2 > Edirol FA-66 > Wavelab 2448 > CD-Wave > TLH > FLAC 2448 Tagged. Transfer by Andrew F. 10/09 
  Archive
Source Information - Download Text | Download Zip
GRATEFUL DEAD
Civic Center
Providence RI
05-13-1981

24bit/48kHz file-set

s1t01 crowd & tuning
s1t02 Jack Straw
s1t03 Tennessee Jed >
s1t04 C.C. Rider
s1t05 Friend of the Devil
s1t06 Mama Tried >
s1t07 Mexicali Blues
s1t08 Birdsong >
s1t09 Let it Grow >
s1t10 Deal

s2t01 crowd & tuning
s2t02 Samson & Delilah
s2t03 crowd & tuning
s2t04 Terrapin >
s2t05 Lost Sailor >
s2t06 Saint of Circumstance >
s2t07 Drums >
s2t08 Space >
s2t09 Iko Iko >
s2t10 I Need a Miracle >
s2t11 Stella Blue >
s2t12 Good Lovin'
s2t13 Encore: Brokedown Palace

AUD: 3x Nakamichi CM-300 w/CP-1 cardioids > Nakamichi 550.
Mics on stand, 25th row right center. Taped by Tim Friend & Joe Morrone.
MAC copied to 1st Gen Maxell XL-II 90's on Nakamichi 680ZX.

Transfer: 1st Gen cassettes > Nakamichi DR-2 > Edirol FA-66 >
Wavelab 2448 > CD-Wave > TLH > FLAC 2448 Tagged. Transfer by
Andrew F. 10/09

Notes: Mic cable problem corrected 2:00 mark of Jack Straw.
Patch from alternate Aud (lineage unknown) covers tape flip,
Drums 8:26 > 9:06.

    length     expanded size    cdr  WAVE problems  fmt   ratio  filename
     1:41.427      29210924 B   cxx   --   ---xx   flac  0.6754  gd1981-05-13s1t01.flac
     7:14.400     125107244 B   cxx   --   ---xx   flac  0.6941  gd1981-05-13s1t02.flac
     8:19.347     143811884 B   cxx   --   ---xx   flac  0.6968  gd1981-05-13s1t03.flac
     8:58.693     155143724 B   cxx   --   ---xx   flac  0.6923  gd1981-05-13s1t04.flac
     9:15.827     160078124 B   cxx   --   ---xx   flac  0.6968  gd1981-05-13s1t05.flac
     2:28.453      42754604 B   cxx   --   ---xx   flac  0.7044  gd1981-05-13s1t06.flac
     5:52.132     101413976 B   cxx   --   ---xx   flac  0.6945  gd1981-05-13s1t07.flac
     8:50.427     152762924 B   cxx   --   ---xx   flac  0.6971  gd1981-05-13s1t08.flac
    10:47.413     186455084 B   cxx   --   ---xx   flac  0.7074  gd1981-05-13s1t09.flac
     8:04.419     139512626 B   cxx   --   ---xx   flac  0.7113  gd1981-05-13s1t10.flac
     0:58.307      16792364 B   cxx   --   ---xx   flac  0.6554  gd1981-05-13s2t01.flac
     7:05.200     122457644 B   cxx   --   ---xx   flac  0.7206  gd1981-05-13s2t02.flac
     1:02.160      17902124 B   cxx   --   ---xx   flac  0.6632  gd1981-05-13s2t03.flac
    13:28.027     232711724 B   cxx   --   ---xx   flac  0.7009  gd1981-05-13s2t04.flac
     7:04.240     122181164 B   cxx   --   ---xx   flac  0.6951  gd1981-05-13s2t05.flac
     6:44.333     116448044 B   cxx   --   ---xx   flac  0.7195  gd1981-05-13s2t06.flac
     9:07.120     157570604 B   cxx   --   ---xx   flac  0.6872  gd1981-05-13s2t07.flac
     4:36.411      79606526 B   cxx   --   ---xx   flac  0.6560  gd1981-05-13s2t08.flac
     7:12.547     124573484 B   cxx   --   ---xx   flac  0.7138  gd1981-05-13s2t09.flac
     3:54.040      67403564 B   cxx   --   ---xx   flac  0.7189  gd1981-05-13s2t10.flac
    10:29.533     181305644 B   cxx   --   ---xx   flac  0.6864  gd1981-05-13s2t11.flac
     7:48.480     134922284 B   cxx   --   ---xx   flac  0.7187  gd1981-05-13s2t12.flac
     6:15.720     108207488 B   cxx   --   ---xx   flac  0.6895  gd1981-05-13s2t13.flac
   157:18.655    2718333772 B                            0.6992  (23 files)

No errors occured.

Show Checksums
ffp
gd1981-05-13s1t01.flac:513dda49300fa037c2c7351f0e1505ad
gd1981-05-13s1t02.flac:94b849099ae0fe0638da349612fbd9ee
gd1981-05-13s1t03.flac:e6601df0602d0bdf122343c383472fb7
gd1981-05-13s1t04.flac:1f6f6dc0093a18ef059ab3dee6b08d3b
gd1981-05-13s1t05.flac:af499f3ead91ae7826ecd461e89c25db
gd1981-05-13s1t06.flac:c9ae4a55ef764461c485c37412414bd8
gd1981-05-13s1t07.flac:5121ed5b6bb7f08835a6d5925a8e59fa
gd1981-05-13s1t08.flac:15f1728a6193a82870a69a0d5aacfb67
gd1981-05-13s1t09.flac:7ef9e6ecab7fa94a82ac4ae6da4a731d
gd1981-05-13s1t10.flac:cf7515fad30dbfa22b3c1862c399cc5b
gd1981-05-13s2t01.flac:fb2083eadacba9c40e14f4f0910fad92
gd1981-05-13s2t02.flac:5ccb41daf6fcc57f9b8a2ffb523a66e4
gd1981-05-13s2t03.flac:19923de6ad5d62f9aa2c163d05713941
gd1981-05-13s2t04.flac:1bfd511538f3b21c3e7e7e756e3d554e
gd1981-05-13s2t05.flac:ff01204032767e3061c1c962f44873ec
gd1981-05-13s2t06.flac:21a6f00bb273c035a0cce1f5eb507210
gd1981-05-13s2t07.flac:c9c48ad8fb7bb20413a8a06125af7ded
gd1981-05-13s2t08.flac:9cc80a9540366cd530a3b478de7ac615
gd1981-05-13s2t09.flac:25a76ff2ff2471dbf1e96873fb2507a7
gd1981-05-13s2t10.flac:1fbdc788dbfce59467537e013508c2d7
gd1981-05-13s2t11.flac:1473131b7ec161605e824c9f35b4c3a0
gd1981-05-13s2t12.flac:2eefcc6f62c3399dddf13aedeb00dbeb
gd1981-05-13s2t13.flac:7e94b77305017b48a87997545481c9f5
flac-md5
483f6f1dae3e8952e8f4ba68f65afb68 *gd1981-05-13s1t01.flac
f2978440d3f6eeb90a8d4f24e19786f8 *gd1981-05-13s1t02.flac
78845c808edaea734807011871085f35 *gd1981-05-13s1t03.flac
caa56a3d96df2b1e84990a318f906768 *gd1981-05-13s1t04.flac
e7f878470ab3b46acf9b5854e4218510 *gd1981-05-13s1t05.flac
3a6f7abe04bbc725b3e9efbbd6bc3f98 *gd1981-05-13s1t06.flac
dce0af689f901afe0902523e062f08a9 *gd1981-05-13s1t07.flac
7a854000d93d79bafee9cc1a46f62a59 *gd1981-05-13s1t08.flac
5dd3b8c67068d85a4d9cee6228986684 *gd1981-05-13s1t09.flac
8d832fb6741934afbabf264860cfa3cb *gd1981-05-13s1t10.flac
13bea210169720c9b566675ca88733b7 *gd1981-05-13s2t01.flac
8d1aa1c1cf3103b9e0a95525a1bc137b *gd1981-05-13s2t02.flac
884fc8299babcde48b5c42496a2da08e *gd1981-05-13s2t03.flac
9f2205ea4de90a04639bade4bf551b67 *gd1981-05-13s2t04.flac
536e82f629ad5aad12daf7fbfde3e74e *gd1981-05-13s2t05.flac
3a5f15569e88fa3a5779d424b1562bc8 *gd1981-05-13s2t06.flac
51e6acc4aef927af75e6897b2754194a *gd1981-05-13s2t07.flac
3a0435cb39557ee58d2d221ff8bb406d *gd1981-05-13s2t08.flac
c4d903d75a99cf3efadb87c339f68bee *gd1981-05-13s2t09.flac
42e0108c20553383f8119dedd55dcfc7 *gd1981-05-13s2t10.flac
b1302303f504ed159a69378b0d3409ea *gd1981-05-13s2t11.flac
82b3c77b2b96930ca5afdc826e50175b *gd1981-05-13s2t12.flac
b0735a737bdfcd2c01670deb61d52ec7 *gd1981-05-13s2t13.flac

Comments
Add Comment
Other Sources (comments)
Nak 300's>MC>DAT>CDR;... (2) flac16; Recording... (0) flac16; Matrix 3... (0) DTS Audio 5.1 - SBD... (0) DVD-VA; (Video... (0) flac16; AUD: 3x... (1) flac16; lineage: nak... (0) flac24; source: aud... (0) flac16; source: aud... (0) flac16; Source Info:... (0) flac24; Source Info:... (0)
Date User Comment
02/08/2013 nfagdtrfb text file correction: taped by Tim Friend & Joe Morrone, thanks guys!