Browse Collections Artists Sources   Search Dates

Add Show    List Management    Help


Grateful Dead 05/13/81
Providence Civic Center, Providence, RI
Comments Add Comment    Source Collectors    Add to Collection    Add to Want List    History
Source # 102181 Other Sources
Entered by Gary Field
Checksums ffp , flac-md5
Disc Counts 2 / 2
Media Size
Date Circulated
Date Added
10/27/2009
10/26/2009
Source Summary flac16; AUD: 3x Nakamichi CM-300 w/CP-1 cardioids > Nakamichi 550. Mics on stand, 25th row right center. Taped by Tim Friend & Joe Morrone. MAC copied to 1st Gen Maxell XL-II 90's on Nakamichi 680ZX. Transfer: 1st Gen cassettes > Nakamichi DR-2 > Edirol FA-66 > Wavelab 2448 > CD-Wave > R8Brain > TLH > FLAC 1644 Tagged. Transfer by Andrew F. 10/09 
  Archive
Source Information - Download Text | Download Zip
GRATEFUL DEAD
Civic Center
Providence RI
05-13-1981

16bit/44.1kHz file-set

s1t01 crowd & tuning
s1t02 Jack Straw
s1t03 Tennessee Jed >
s1t04 C.C. Rider
s1t05 Friend of the Devil
s1t06 Mama Tried >
s1t07 Mexicali Blues
s1t08 Birdsong >
s1t09 Let it Grow >
s1t10 Deal

s2t01 crowd & tuning
s2t02 Samson & Delilah
s2t03 crowd & tuning
s2t04 Terrapin >
s2t05 Lost Sailor >
s2t06 Saint of Circumstance >
s2t07 Drums >
s2t08 Space >
s2t09 Iko Iko >
s2t10 I Need a Miracle >
s2t11 Stella Blue >
s2t12 Good Lovin'
s2t13 Encore: Brokedown Palace

AUD: 3x Nakamichi CM-300 w/CP-1 cardioids > Nakamichi 550.
Mics on stand, 25th row right center. Taped by Tim Friend & Joe Morrone.
MAC copied to 1st Gen Maxell XL-II 90's on Nakamichi 680ZX.

Transfer: 1st Gen cassettes > Nakamichi DR-2 > Edirol FA-66 >
Wavelab 2448 > CD-Wave > R8Brain > TLH > FLAC 1644 Tagged.
Transfer by Andrew F. 10/09

Notes: Mic cable problem corrected 2:00 mark of Jack Straw.
Patch from alternate Aud (lineage unknown) covers tape flip,
Drums 8:26 > 9:06.

CDR Burning: D1 s1t01 > s2t02, D2 s2t03 > s2t13.

    length     expanded size    cdr  WAVE problems  fmt   ratio  filename
     1:41.32       17891708 B   ---   --   ---xx   flac  0.5233  gd1981-05-13s1t01.flac
     7:14.30       76628204 B   ---   --   ---xx   flac  0.5516  gd1981-05-13s1t02.flac
     8:19.26       88084796 B   ---   --   ---xx   flac  0.5565  gd1981-05-13s1t03.flac
     8:58.52       95025548 B   ---   --   ---xx   flac  0.5490  gd1981-05-13s1t04.flac
     9:15.62       98047868 B   ---   --   ---xx   flac  0.5561  gd1981-05-13s1t05.flac
     2:28.34       26187212 B   ---   --   ---xx   flac  0.5688  gd1981-05-13s1t06.flac
     5:52.09       62114012 B   ---   --   ---xx   flac  0.5525  gd1981-05-13s1t07.flac
     8:50.32       93567308 B   ---   --   ---xx   flac  0.5568  gd1981-05-13s1t08.flac
    10:47.31      114203756 B   ---   --   ---xx   flac  0.5735  gd1981-05-13s1t09.flac
     8:04.32       85452908 B   ---   --   ---xx   flac  0.5806  gd1981-05-13s1t10.flac
     0:58.23       10285340 B   ---   --   ---xx   flac  0.4932  gd1981-05-13s2t01.flac
     7:05.15       75005324 B   ---   --   ---xx   flac  0.5947  gd1981-05-13s2t02.flac
     1:02.12       10965068 B   ---   --   ---xx   flac  0.5004  gd1981-05-13s2t03.flac
    13:28.02      142535948 B   ---   --   ---xx   flac  0.5625  gd1981-05-13s2t04.flac
     7:04.18       74835980 B   ---   --   ---xx   flac  0.5531  gd1981-05-13s2t05.flac
     6:44.25       71324444 B   ---   --   ---xx   flac  0.5926  gd1981-05-13s2t06.flac
     9:07.09       96512012 B   ---   --   ---xx   flac  0.5409  gd1981-05-13s2t07.flac
     4:36.31       48759356 B   ---   --   ---xx   flac  0.4892  gd1981-05-13s2t08.flac
     7:12.41       76301276 B   ---   --   ---xx   flac  0.5838  gd1981-05-13s2t09.flac
     3:54.03       41284700 B   ---   --   ---xx   flac  0.5921  gd1981-05-13s2t10.flac
    10:29.40      111049724 B   ---   --   ---xx   flac  0.5393  gd1981-05-13s2t11.flac
     7:48.36       82639916 B   ---   --   ---xx   flac  0.5917  gd1981-05-13s2t12.flac
     6:15.55       66279404 B   ---   --   ---xx   flac  0.5455  gd1981-05-13s2t13.flac
   157:18.50     1664981812 B                            0.5602  (23 files)

No errors occured.

Show Checksums
ffp
gd1981-05-13s1t01.flac:5d3f252b8e159029d7a441a68ad4eb5a
gd1981-05-13s1t02.flac:3dd02be14fd11848d83fe7c879eebc87
gd1981-05-13s1t03.flac:9be434f698c42e5252f21970c505b703
gd1981-05-13s1t04.flac:b009e48580f4f4d57b9f8492a05145df
gd1981-05-13s1t05.flac:fc7ac7d8f9144d871d9488eebc984707
gd1981-05-13s1t06.flac:cf8e5b93a4de8e1417b99a7c350fbfb3
gd1981-05-13s1t07.flac:c7d4fb6d25af8efbbe0dc904fa1ca31f
gd1981-05-13s1t08.flac:ad77df84b555f1b8fe286e5952149761
gd1981-05-13s1t09.flac:b2c884de93267c02f1c0410a9dc16139
gd1981-05-13s1t10.flac:6716c12c3dd0572b3fdef4037e17b953
gd1981-05-13s2t01.flac:13b2e327c7f1037b79105b4e7ef9f1e2
gd1981-05-13s2t02.flac:e035704bc68e4ba6ab810ab2242c7f20
gd1981-05-13s2t03.flac:a3f5a707198daab3f85a2b879f5bd7a8
gd1981-05-13s2t04.flac:cf6118405b5cf627cb527e3d4b2df346
gd1981-05-13s2t05.flac:6a94a4e9087cd320faa922e7850f4521
gd1981-05-13s2t06.flac:1c64fc4253d1b87647851f7de22669fc
gd1981-05-13s2t07.flac:1fa03efcd39019eb6c4106e0713e7ba7
gd1981-05-13s2t08.flac:7d5f7fb83ad5e72b5acd4425521656cc
gd1981-05-13s2t09.flac:25cca16fef510ec63ec78463bc51829f
gd1981-05-13s2t10.flac:5ba451ec9963343f9fb0bb5affc9996d
gd1981-05-13s2t11.flac:7b12c42989cb46be2e5b0efc222fd626
gd1981-05-13s2t12.flac:d6b1c89a9e43d380e5c48b663f3dc06f
gd1981-05-13s2t13.flac:7f255dda83fed8bf3b132c438ab2dd35
flac-md5
219769631b032f74b42b4ceb6541d245 *gd1981-05-13s1t01.flac
15a9c33dca01e1a245e3bce741ee642b *gd1981-05-13s1t02.flac
1f99d1481130beff1fa46c45e67aaa71 *gd1981-05-13s1t03.flac
446b967bc715a82c03a2afa834146507 *gd1981-05-13s1t04.flac
8d9e96ddbb75226e833b8da94fa934bc *gd1981-05-13s1t05.flac
5d963097c0d54c5d8b0cdb6e84fe0854 *gd1981-05-13s1t06.flac
b863a22d5434c9521cebd17e95c24e1f *gd1981-05-13s1t07.flac
8e9bd2f65e633c2ba019367dd08bd2c0 *gd1981-05-13s1t08.flac
76a80e9cdea602b498bb61a2d520499b *gd1981-05-13s1t09.flac
24df6ee69c0bdeb2c5cd95410a4ab201 *gd1981-05-13s1t10.flac
8db7f689a29650e4a211ef29352b5f52 *gd1981-05-13s2t01.flac
61660c51907330957169ae7b6e2662ba *gd1981-05-13s2t02.flac
b4490d9d6f85ad30c185bdbe32ff1187 *gd1981-05-13s2t03.flac
8920e29d491a0acc00f78d20c372af14 *gd1981-05-13s2t04.flac
7dc2662ab127753b284b8462bf2aea16 *gd1981-05-13s2t05.flac
8c3d4cfca13cd92fff12050cdb42520c *gd1981-05-13s2t06.flac
ba751e6a8be0b046e06a6029c5e8b921 *gd1981-05-13s2t07.flac
d6b8190264a5094241fcba4cb09b3568 *gd1981-05-13s2t08.flac
26b65856a1c071d45f269e6aeadb1583 *gd1981-05-13s2t09.flac
42fff789a0d30edca98b8fbf76bb35cc *gd1981-05-13s2t10.flac
b6a90d05fc0b7379da2c8a5c234c83a6 *gd1981-05-13s2t11.flac
b814ffddb15b785da866cb1d1a1c33bf *gd1981-05-13s2t12.flac
2ea4e94e50ef20db249a3189d076b4de *gd1981-05-13s2t13.flac

Comments
Add Comment
Other Sources (comments)
Nak 300's>MC>DAT>CDR;... (2) flac16; Recording... (0) flac16; Matrix 3... (0) DTS Audio 5.1 - SBD... (0) DVD-VA; (Video... (0) flac24; AUD: 3x... (1) flac16; lineage: nak... (0) flac24; source: aud... (0) flac16; source: aud... (0) flac16; Source Info:... (0) flac24; Source Info:... (0)
Date User Comment
02/08/2013 nfagdtrfb text file correction: taped by Tim Friend & Joe Morrone, thanks guys!