Browse Collections Artists Sources   Search Dates

Add Show    List Management    Help


Derek Trucks Band 09/11/09
Finney Chapel -- Oberlin College, Oberlin, OH
Comments Add Comment    Source Collectors    Add to Collection    Add to Want List    History
Source # 102216 Other Sources
Entered by Steve Blanchard
Checksums ffp
Disc Counts 1 / 2
Media Size
Date Circulated
Date Added
09/12/2009
10/29/2009
Source Summary Schoeps CCM4V'S(din) > Lunatec V2 > Benchmark AD2K > Sound Devices 722 (24/48), Location: FOB/DFC/KFC/ZFC/AARP 9th Row, Between Seats 7 & 8, 6' High, DSP: Sound Devices 722 > Sound Forge 9.0 > CD Wave > flac(16), Recorded By: Z-Man 
  Archive
Source Information - Download Text | Download Zip
Derek Trucks Band
Finney Chapel
Oberlin College
Oberlin, Ohio
9/11/2009

Source: Schoeps CCM4V'S(din)>Lunatec V2>Benchmark AD2K>
Sound Devices 722 (24/48)
Location: FOB/DFC/KFC/ZFC/AARP 9th Row, Between Seats 7 & 8, 6' High
DSP: Sound Devices 722>Sound Forge 9.0>CD Wave>flac(16)
Recorded By: Z-Man
Seeded By: Z-Man
  
Disc I

01 Get What You Deserve
02 Jam >
03 Spend My Time Lovin' You
04
05 Done Got Over
06 Blind, Crippled, and Crazy >
07 ? >
08 Feel So BAd

Disc II

01 Sweet Inspiration
02 Get Out Of My Life Woman
03 Anyday
Encore:
04 Band Introductions
05 Move It On Up

Flac Fingerprint

dtb2009-09-11d01t01.flac:fd6b745fd231a2f7fcc11c409a079451
dtb2009-09-11d01t02.flac:801eec77969e360649e874f113603ad6
dtb2009-09-11d01t03.flac:782fb73fd5fb0c10e7ceed81991d58e1
dtb2009-09-11d01t04.flac:bd1babc4db5c342ac47e5f8abab94bc2
dtb2009-09-11d01t05.flac:d98c6743e169c7d2c1e879866448155c
dtb2009-09-11d01t06.flac:f00e99fc06eeb760345151625cf692d2
dtb2009-09-11d01t07.flac:e69534263954e468449b359d799493b2
dtb2009-09-11d01t08.flac:670c67d63bd95d2f8f04ebf5144fdb99
dtb2009-09-11d02t01.flac:ca8be82a84b28fac6afe87e1adf00c29
dtb2009-09-11d02t02.flac:7cace8ca9039dde92c13575354db80e6
dtb2009-09-11d02t03.flac:4b84e928507a48e7dd29849b3baa9f2e
dtb2009-09-11d02t04.flac:662ed4caf9370a25c622b79e9b1b007f
dtb2009-09-11d02t05.flac:898f3632d56dc5615571278eb3b326bd

Shntool

    length     expanded size    cdr  WAVE problems  fmt   ratio  filename
     8:49.22       93367388 B   ---   --   ---xx   flac  0.6497  dtb2009-09-11d01t01.flac
     2:54.59       30832412 B   ---   --   ---xx   flac  0.4675  dtb2009-09-11d01t02.flac
     5:16.39       55834172 B   ---   --   ---xx   flac  0.6359  dtb2009-09-11d01t03.flac
     9:53.52      104727548 B   ---   --   ---xx   flac  0.5823  dtb2009-09-11d01t04.flac
     9:00.47       95366588 B   ---   --   ---xx   flac  0.6231  dtb2009-09-11d01t05.flac
    10:32.54      111611852 B   ---   --   ---xx   flac  0.5622  dtb2009-09-11d01t06.flac
     7:05.42       75068828 B   ---   --   ---xx   flac  0.5598  dtb2009-09-11d01t07.flac
     8:05.60       85695164 B   ---   --   ---xx   flac  0.5633  dtb2009-09-11d01t08.flac
     8:33.65       90646124 B   ---   --   ---xx   flac  0.5967  dtb2009-09-11d02t01.flac
    13:28.07      142547708 B   ---   --   ---xx   flac  0.6198  dtb2009-09-11d02t02.flac
    11:53.04      125782652 B   ---   --   ---xx   flac  0.6350  dtb2009-09-11d02t03.flac
     1:27.29       15415052 B   ---   --   ---xx   flac  0.5500  dtb2009-09-11d02t04.flac
     9:51.44      104355932 B   ---   --   ---xx   flac  0.6099  dtb2009-09-11d02t05.flac
   106:52.74     1131251420 B                            0.5998  (13 files)
Show Checksums
ffp
dtb2009-09-11d01t01.flac:fd6b745fd231a2f7fcc11c409a079451
dtb2009-09-11d01t02.flac:801eec77969e360649e874f113603ad6
dtb2009-09-11d01t03.flac:782fb73fd5fb0c10e7ceed81991d58e1
dtb2009-09-11d01t04.flac:bd1babc4db5c342ac47e5f8abab94bc2
dtb2009-09-11d01t05.flac:d98c6743e169c7d2c1e879866448155c
dtb2009-09-11d01t06.flac:f00e99fc06eeb760345151625cf692d2
dtb2009-09-11d01t07.flac:e69534263954e468449b359d799493b2
dtb2009-09-11d01t08.flac:670c67d63bd95d2f8f04ebf5144fdb99
dtb2009-09-11d02t01.flac:ca8be82a84b28fac6afe87e1adf00c29
dtb2009-09-11d02t02.flac:7cace8ca9039dde92c13575354db80e6
dtb2009-09-11d02t03.flac:4b84e928507a48e7dd29849b3baa9f2e
dtb2009-09-11d02t04.flac:662ed4caf9370a25c622b79e9b1b007f
dtb2009-09-11d02t05.flac:898f3632d56dc5615571278eb3b326bd

Comments
Add Comment
Date User Comment