Browse Collections Artists Sources   Search Dates

Add Show    List Management    Help


Phish 10/31/09
Empire Polo Club, Indio, CA
Comments Add Comment    Source Collectors    Add to Collection    Add to Want List    History
Source # 102283 Other Sources
Entered by Jason Sobel
Checksums 16bit-FFP
Disc Counts 2 / 5
Media Size
Date Circulated
Date Added
11/01/2009
11/01/2009
Source Summary (FOB) Schoeps CCM4V'S > Lunatec V2 > Benchmark AD2K > Sound Devices 722 (24/48); Sound Devices 722 > Sound Forge 9.0 > CD Wave > flac(16); Taped & Transferred by Z-Man 
Source Information - Download Text | Download Zip
Phish
Empire Polo Club
Indio, California
10/31/2009

Source: Schoeps CCM4V'S(din)>Lunatec V2>Benchmark AD2K>
Sound Devices 722 (24/48)
Location: FOB/DFC/KFC/ZFC/AARP 50' From Stage, 6' High
DSP: Sound Devices 722>Sound Forge 9.0>CD Wave>flac(16)
Recorded By: Z-Man
Seeded By: Z-Man
  
Disc I 1st Set

01 Samole In A Jar
02 Divided Sky
03 Lawn Boy
04 Kill Devil Falls
05 Bathtub Gin


Disc II 1st Set Con't

01 Squirming Coil
02 Runaway Jim >
03 Possum
04 Run Like An Antelope

Disc III 2nd Set

01 PA Music
02 *Rocks Off >
03 *Rip This Joint
04 *Shake Your Hips
05 Casino Boogie
06 *#Tumblin' Dice
07 *#Sweet Virginia
08 Torn And Frayed
09 *@Sweet Black Angel
10 *#Lovin' Cup

Disc IV 2nd Set Con't

01 *#Happy
02 *#Turd On The Run
03 *#Ventilator Blues >
04 #I Just Want To See His Face
05 #Let It Loose
06 All Down The Line
07 *#Stop Breakin' Down
08 *#Shine A Light
09 *#Soul Survivor

Disc V 3rd Set

01 Backwards Down The Number Line >
02 Fluff Head >
03 Ghost >
04 When The Circus Comes To Town
05 You Enjoy Myself
Encore:
06 Suzy Greenberg

* With David Guy, Tony JArvis, and David Smith on Horns
# With Sharon Jones and Saundra Williams On Vocals
@ Trey On Acoustic Guitar

Flac Fingerprint

phish2009-10-31d01t01.flac:1fce0fbd186a139d552662d91f851d30
phish2009-10-31d01t02.flac:3ed61f9739a18528c213b7fa56ea0873
phish2009-10-31d01t03.flac:e7dd31f4cb4da0fc271d65d8a97553f0
phish2009-10-31d01t04.flac:549eba728af93bad709f40a2baf8d9e1
phish2009-10-31d01t05.flac:b6d263e00c9f787279d913c3a90320b8
phish2009-10-31d02t01.flac:f6ad173ef2174e46e28da1414b17d40a
phish2009-10-31d02t02.flac:97873583496bb84fe5053aca558aaa51
phish2009-10-31d02t03.flac:4f4dd3e146dd0c381e93b3daf9c8d986
phish2009-10-31d02t04.flac:1ba2ba6d356bac60fb4b8449f158e911
phish2009-10-31d03t01.flac:9e6bb9262884b38794f37beeb8c29f3d
phish2009-10-31d03t02.flac:b3b7163673973ff7403a51bcd9b2fa7e
phish2009-10-31d03t03.flac:07584c35bc945ccc0fa902519fe47fb7
phish2009-10-31d03t04.flac:953caf59b7ffddb409ca725a541f9427
phish2009-10-31d03t05.flac:1601a37a620018568addb9ce733eb13e
phish2009-10-31d03t06.flac:e91577a2dced3538806b6711cd39547a
phish2009-10-31d03t07.flac:c6f8ea282693fb51825736c86eea150b
phish2009-10-31d03t08.flac:5bb94b163824d686f80c03d97813ebac
phish2009-10-31d03t09.flac:817ab643eae33a9be3dde8d4b659c57e
phish2009-10-31d03t10.flac:4a2f5f077db3baa365bbca49f354d141
phish2009-10-31d04t01.flac:561b0a1852fddd8e2e3da3c8b48ec19a
phish2009-10-31d04t02.flac:e2c7b1711679a04048183a1c02a38ab0
phish2009-10-31d04t03.flac:36a3e39f43d951410cef41e1d4cb868f
phish2009-10-31d04t04.flac:d2dee24ca8d42ccbc31120926f47faf5
phish2009-10-31d04t05.flac:5fbf5ba019bc0d360572c0f1401bbc97
phish2009-10-31d04t06.flac:5fcc6291005d3128d9729481a82bbc71
phish2009-10-31d04t07.flac:3d3b793e7211adcc0208b622b46ae476
phish2009-10-31d04t08.flac:20a4bd8e1ade99b44ec84eb745fb1885
phish2009-10-31d04t09.flac:e228f1b6e55fae77bc40d6fd8bd7fe45
phish2009-10-31d05t01.flac:c6d8e0eb84442373a543bce34786182b
phish2009-10-31d05t02.flac:eb99a8041154cad119599062aaaabc69
phish2009-10-31d05t03.flac:8c4b026ecdffbe2f7757fac1ae46e7a1
phish2009-10-31d05t04.flac:2a87540b0764217e188585b874fe8968
phish2009-10-31d05t05.flac:1a962dee945cc3909cf00d91e9d074a9
phish2009-10-31d05t06.flac:810b4f86fa70f3ad91cabad2658f8347

Shntool

    length     expanded size    cdr  WAVE problems  fmt   ratio  filename
     5:28.63       58007420 B   ---   --   ---xx   flac  0.4550  phish2009-10-31d01t01.flac
    16:28.74      174457292 B   ---   --   ---xx   flac  0.4212  phish2009-10-31d01t02.flac
     3:09.53       33464300 B   ---   --   ---xx   flac  0.3796  phish2009-10-31d01t03.flac
     8:51.12       93696668 B   ---   --   ---xx   flac  0.4856  phish2009-10-31d01t04.flac
    11:37.09      122972012 B   ---   --   ---xx   flac  0.4508  phish2009-10-31d01t05.flac
     8:19.46       88131836 B   ---   --   ---xx   flac  0.4008  phish2009-10-31d02t01.flac
     7:06.16       75184076 B   ---   --   ---xx   flac  0.4744  phish2009-10-31d02t02.flac
     8:48.63       93287420 B   ---   --   ---xx   flac  0.4862  phish2009-10-31d02t03.flac
    11:36.69      122936732 B   ---   --   ---xx   flac  0.4571  phish2009-10-31d02t04.flac
     6:43.74       71263292 B   ---   --   ---xx   flac  0.4437  phish2009-10-31d03t01.flac
     5:13.27       55276748 B   ---   --   ---xx   flac  0.5598  phish2009-10-31d03t02.flac
     2:50.07       30004508 B   ---   --   ---xx   flac  0.5280  phish2009-10-31d03t03.flac
     4:37.48       48975740 B   ---   --   ---xx   flac  0.4661  phish2009-10-31d03t04.flac
     6:12.17       65660828 B   ---   --   ---xx   flac  0.4973  phish2009-10-31d03t05.flac
     5:51.19       61961132 B   ---   --   ---xx   flac  0.4810  phish2009-10-31d03t06.flac
     5:07.17       54194828 B   ---   --   ---xx   flac  0.4736  phish2009-10-31d03t07.flac
     8:56.07       94566908 B   ---   --   ---xx   flac  0.4924  phish2009-10-31d03t08.flac
     4:07.68       43730780 B   ---   --   ---xx   flac  0.4162  phish2009-10-31d03t09.flac
     7:33.00       79909244 B   ---   --   ---xx   flac  0.5491  phish2009-10-31d03t10.flac
     4:26.29       46990652 B   ---   --   ---xx   flac  0.5629  phish2009-10-31d04t01.flac
     4:10.53       44224700 B   ---   --   ---xx   flac  0.5257  phish2009-10-31d04t02.flac
     5:48.26       61448396 B   ---   --   ---xx   flac  0.4927  phish2009-10-31d04t03.flac
     7:11.20       76075484 B   ---   --   ---xx   flac  0.3819  phish2009-10-31d04t04.flac
     6:34.34       69581612 B   ---   --   ---xx   flac  0.4407  phish2009-10-31d04t05.flac
     5:39.08       59818460 B   ---   --   ---xx   flac  0.5384  phish2009-10-31d04t06.flac
     4:38.33       49116860 B   ---   --   ---xx   flac  0.5104  phish2009-10-31d04t07.flac
     5:46.13       61065020 B   ---   --   ---xx   flac  0.4910  phish2009-10-31d04t08.flac
     7:25.44       78601532 B   ---   --   ---xx   flac  0.5437  phish2009-10-31d04t09.flac
    12:39.24      133944092 B   ---   --   ---xx   flac  0.4941  phish2009-10-31d05t01.flac
    14:02.68      148688780 B   ---   --   ---xx   flac  0.4839  phish2009-10-31d05t02.flac
    13:49.72      146404988 B   ---   --   ---xx   flac  0.4876  phish2009-10-31d05t03.flac
     4:58.39       52658972 B   ---   --   ---xx   flac  0.4516  phish2009-10-31d05t04.flac
    21:47.06      230568956 B   ---   --   ---xx   flac  0.4641  phish2009-10-31d05t05.flac
    12:33.19      132873932 B   ---   --   ---xx   flac  0.5388  phish2009-10-31d05t06.flac
   270:11.52     2859744200 B                            0.4775  (34 files)


Show Checksums
16bit-FFP
phish2009-10-31d01t01.flac:1fce0fbd186a139d552662d91f851d30
phish2009-10-31d01t02.flac:3ed61f9739a18528c213b7fa56ea0873
phish2009-10-31d01t03.flac:e7dd31f4cb4da0fc271d65d8a97553f0
phish2009-10-31d01t04.flac:549eba728af93bad709f40a2baf8d9e1
phish2009-10-31d01t05.flac:b6d263e00c9f787279d913c3a90320b8
phish2009-10-31d02t01.flac:f6ad173ef2174e46e28da1414b17d40a
phish2009-10-31d02t02.flac:97873583496bb84fe5053aca558aaa51
phish2009-10-31d02t03.flac:4f4dd3e146dd0c381e93b3daf9c8d986
phish2009-10-31d02t04.flac:1ba2ba6d356bac60fb4b8449f158e911
phish2009-10-31d03t01.flac:9e6bb9262884b38794f37beeb8c29f3d
phish2009-10-31d03t02.flac:b3b7163673973ff7403a51bcd9b2fa7e
phish2009-10-31d03t03.flac:07584c35bc945ccc0fa902519fe47fb7
phish2009-10-31d03t04.flac:953caf59b7ffddb409ca725a541f9427
phish2009-10-31d03t05.flac:1601a37a620018568addb9ce733eb13e
phish2009-10-31d03t06.flac:e91577a2dced3538806b6711cd39547a
phish2009-10-31d03t07.flac:c6f8ea282693fb51825736c86eea150b
phish2009-10-31d03t08.flac:5bb94b163824d686f80c03d97813ebac
phish2009-10-31d03t09.flac:817ab643eae33a9be3dde8d4b659c57e
phish2009-10-31d03t10.flac:4a2f5f077db3baa365bbca49f354d141
phish2009-10-31d04t01.flac:561b0a1852fddd8e2e3da3c8b48ec19a
phish2009-10-31d04t02.flac:e2c7b1711679a04048183a1c02a38ab0
phish2009-10-31d04t03.flac:36a3e39f43d951410cef41e1d4cb868f
phish2009-10-31d04t04.flac:d2dee24ca8d42ccbc31120926f47faf5
phish2009-10-31d04t05.flac:5fbf5ba019bc0d360572c0f1401bbc97
phish2009-10-31d04t06.flac:5fcc6291005d3128d9729481a82bbc71
phish2009-10-31d04t07.flac:3d3b793e7211adcc0208b622b46ae476
phish2009-10-31d04t08.flac:20a4bd8e1ade99b44ec84eb745fb1885
phish2009-10-31d04t09.flac:e228f1b6e55fae77bc40d6fd8bd7fe45
phish2009-10-31d05t01.flac:c6d8e0eb84442373a543bce34786182b
phish2009-10-31d05t02.flac:eb99a8041154cad119599062aaaabc69
phish2009-10-31d05t03.flac:8c4b026ecdffbe2f7757fac1ae46e7a1
phish2009-10-31d05t04.flac:2a87540b0764217e188585b874fe8968
phish2009-10-31d05t05.flac:1a962dee945cc3909cf00d91e9d074a9
phish2009-10-31d05t06.flac:810b4f86fa70f3ad91cabad2658f8347

Comments
Add Comment
Other Sources (comments)
Milab VM-44 Link -> Lunatec... (0) Neumann KM140s > Sound... (0) (FOB) Neumann ak40/lc3... (0) (FOB) Schoeps mk22 > KC5 >... (0) AKG c460b|a60m|ck3 > Fostex... (0) Sennheiser ME-66's >... (0) SP-TFB-2 > SP-SPSB-10 >... (0) (FOB) Neumann TLM-170... (0) (FOB) [DPA 4023 -> Lunatec... (0) (set 2 only) 8-Channel... (0) Sennheiser 441 > Edirol... (0)
Date User Comment