Browse Collections Artists Sources   Search Dates

Add Show    List Management    Help


Gov't Mule 10/30/09
Casino Ballroom, Hampton Beach, NH
Comments Add Comment    Source Collectors    Add to Collection    Add to Want List    History
Source # 102341 Other Sources
Entered by
Checksums ffp
Disc Counts 2 / 3
Media Size
Date Circulated
Date Added
11/01/2009
11/03/2009
Source Summary Schoeps MK41>KC5>CMC6>Sonosax SX-M2>Apogee Mini-me(aes [email protected] bit/96khz)>COAX>Edirol R-44
SD-HC Card>USB>Soundforge 8(tracking,normalize,resample/dither to 16 bit/44.1khz)>FLAC (sector alignment,Level 8 ) 
Source Information - Download Text | Download Zip
Govt Mule
2009-10-30
Hampton Beach Casino Ballroom
Hampton Beach, NH

Recorded and transferred by Andy Murray

Right side of soundboard DINa
Schoeps MK41>KC5>CMC6>Sonosax SX-M2>Apogee Mini-me(aes [email protected] bit/96khz)>COAX>Edirol R-44
SD-HC Card>USB>Soundforge 8(tracking,normalize,resample/dither to 16 bit/44.1khz)>FLAC (sector alignment,Level 8 )

Jackie Green Band opened

3 Discs
2 Sets

Disc 1:
Set 1:

Intro
Brand New Angel
Blind Man In The Dark >
Steppin' Lightly
Any Open Window
Far Away (with Paint It Black Tease)
No Need To Suffer
32/20 Blues (with Jackie Greene)
Frozen Fear
That's What Love Will Make You Do (with Jackie Greene, Jeremy Plog, Bruce Spencer & Nathan Dale)

Disc 2:
Set 2:

Intro
Broke Down On The Brazos
Inside Outside Woman Blues
Get Behind The Mule
Mr. Big >
Drums
I'll Be The One > with Blue Sky Teases
You Can't Always Get What You Want >I'll Be The One
Thorazine Shuffle

Disc 3:
Encore (with Jackie Greene):

Don't Let Me Down
Sugaree

Jorgen Carlsson's One Year Anniversary With Gov't Mule

length expanded size cdr WAVE problems filename
1:03.43 11214380 --- -- ----- mule2009-10-30_mk41_1644_d1t01.wav
6:49.47 72258188 --- -- ----- mule2009-10-30_mk41_1644_d1t02.wav
7:14.73 76729340 --- -- ----- mule2009-10-30_mk41_1644_d1t03.wav
8:05.20 85601084 --- -- ----- mule2009-10-30_mk41_1644_d1t04.wav
5:48.28 61453100 --- -- ----- mule2009-10-30_mk41_1644_d1t05.wav
10:21.74 109718492 --- -- ----- mule2009-10-30_mk41_1644_d1t06.wav
9:15.36 97986716 --- -- ----- mule2009-10-30_mk41_1644_d1t07.wav
8:24.41 89002076 --- -- ----- mule2009-10-30_mk41_1644_d1t08.wav
7:02.23 74494940 --- -- ----- mule2009-10-30_mk41_1644_d1t09.wav
9:08.66 96822476 --- -- ----- mule2009-10-30_mk41_1644_d1t10.wav
0:50.71 8987036 --- -- ----- mule2009-10-30_mk41_1644_d2t01.wav
6:47.54 71921852 --- -- ----- mule2009-10-30_mk41_1644_d2t02.wav
9:29.08 100390460 --- -- ----- mule2009-10-30_mk41_1644_d2t03.wav
7:16.16 76948076 --- -- ----- mule2009-10-30_mk41_1644_d2t04.wav
6:22.38 67474220 --- -- ----- mule2009-10-30_mk41_1644_d2t05.wav
8:39.53 91676300 --- -- ----- mule2009-10-30_mk41_1644_d2t06.wav
7:45.51 82145996 --- -- ----- mule2009-10-30_mk41_1644_d2t07.wav
1:35.03 16765100 --- -- ----- mule2009-10-30_mk41_1644_d2t08.wav
16:28.14 174316172 --- -- ----- mule2009-10-30_mk41_1644_d2t09.wav
5:46.54 61161452 --- -- ----- mule2009-10-30_mk41_1644_d3t01.wav
13:07.38 138916220 --- -- ----- mule2009-10-30_mk41_1644_d3t02.wav
157:24.26 1665983676 B (totals for 21 files, 1.0000 overall compression ratio)
Show Checksums
ffp
mule2009-10-30_mk41_1644_d1t01.flac:a020dabc34a66e56b20a92c6fd62b3a8
mule2009-10-30_mk41_1644_d1t02.flac:6f4708ac0404db216629d4438318d97d
mule2009-10-30_mk41_1644_d1t03.flac:d0f59d0c9ff1a8e9a64e97cc79cc1550
mule2009-10-30_mk41_1644_d1t04.flac:3f1355db2f19645170c9f409aaf8dbd4
mule2009-10-30_mk41_1644_d1t05.flac:0b7196b7be01e209e4f39d785dee37b3
mule2009-10-30_mk41_1644_d1t06.flac:f8d7fc0ad0b5d8da570f2dc32e3cc94e
mule2009-10-30_mk41_1644_d1t07.flac:51b705eb5b311c26be0ffa3f633b6e91
mule2009-10-30_mk41_1644_d1t08.flac:7240988d534d8bb0473b8da793dde5e5
mule2009-10-30_mk41_1644_d1t09.flac:00acdc5ada4eff0060765eaba7d97028
mule2009-10-30_mk41_1644_d1t10.flac:10149599387703fb6b12c33b75ea8c9e
mule2009-10-30_mk41_1644_d2t01.flac:63f3d482e0f5def60c4160bd7c0f1d96
mule2009-10-30_mk41_1644_d2t02.flac:fbaf88555b34f804703f2f46b2bf882a
mule2009-10-30_mk41_1644_d2t03.flac:a632505659045231afd006a7769422b6
mule2009-10-30_mk41_1644_d2t04.flac:e57d2ee12e9eaddcd45a5a981078b41e
mule2009-10-30_mk41_1644_d2t05.flac:afd7be9be946361934e86c62fd0c66c5
mule2009-10-30_mk41_1644_d2t06.flac:cadef8cc533cd797c961edb2073c3742
mule2009-10-30_mk41_1644_d2t07.flac:92ce3f6494f3f1164a0a90e981c0db1b
mule2009-10-30_mk41_1644_d2t08.flac:6f5242ef1d2b67177bfecd9a84f2f73d
mule2009-10-30_mk41_1644_d2t09.flac:08ce9ff5ae1fea0a8f6437f9f3604257
mule2009-10-30_mk41_1644_d3t01.flac:16f8f6a873f005b42c89d2d12bed3196
mule2009-10-30_mk41_1644_d3t02.flac:514d7646d0d95c190215ea8896446c85

Comments
Add Comment
Other Sources (comments)
SP C-4>Oade BCM Marantz pmd... (0) Schoeps MK4 > CMC6 > Sound... (0) flac2496: Schoeps... (0) Source: AKG480/CK63 > Hydra... (0)
Date User Comment