Browse Collections Artists Sources   Search Dates

Add Show    List Management    Help


Disco Biscuits 09/12/09
Starland Ballroom, Sayreville, NJ
Comments Add Comment    Source Collectors    Add to Collection    Add to Want List    History
Source # 102364 Other Sources
Entered by SailorSaint
Checksums ffp
Disc Counts 2 / 3
Media Size
Date Circulated
Date Added
09/20/09
11/04/2009
Source Summary Schoeps mk41 > kc5 > cmc6 > Lunatec V3 > AES > MTII @ 24 bit/ 48 kHz CF > Sound Studio 3 > (fades, normalize peak, resample, dither tracking) > xAct (sector alignment, encode, tag, fingerprint) 
Source Information - Download Text | Download Zip
The Disco Biscuits
09/12/09
Starland Ballroom
Sayreville, NJ

Source: {16 bit} Schoeps mk41 > kc5 > cmc6 > Lunatec V3 > AES > MTII @ 24 bit/ 48 kHz
Lineage: CF > Sound Studio 3 > (fades, normalize peak, resample, dither tracking) > xAct (sector alignment, encode, tag, fingerprint)
Location: FOH/DFC/NOS
Recorded by Jesse Hurlburt

Disc 1 - Set 1
01 Crowd
02 Story of the World >
03 Helicopters (1) >
04 42 >
05 Story of the World
06 Rockafella
07 Stone >
08 Devil\'s Waltz

Disc 2 - Set 2
01 Uber Glue
02 Konkrete
03 Bazaar Escape (1) >
04 Save the Robots
05 New Song (2)
06 The Very Moon>
07 42

III: (Tractorbeam)
01 Banter
02 Confrontation >
03 Digital Buddha (1) >
04 The Great Abyss >
05 Mr. Don (1) >
06 Confrontation
07 -encore break-
08 E: Once the Fiddler Paid

(1) unfinished
(2) first time played

    length     expanded size    cdr  WAVE problems  fmt   ratio  filename
     1:09.12       12199868 B   ---   --   ---xx  db2009-09-12.mk41.d1t01.flac
    10:54.16      115403276 B   ---   --   ---xx  db2009-09-12.mk41.d1t02.flac
    13:33.06      143427356 B   ---   --   ---xx  db2009-09-12.mk41.d1t03.flac
    14:27.34      153018812 B   ---   --   ---xx  db2009-09-12.mk41.d1t04.flac
     4:19.37       45774668 B   ---   --   ---xx  db2009-09-12.mk41.d1t05.flac
    11:11.69      118526732 B   ---   --   ---xx  db2009-09-12.mk41.d1t06.flac
     3:17.40       34844924 B   ---   --   ---xx  db2009-09-12.mk41.d1t07.flac
    10:12.32      108032108 B   ---   --   ---xx  db2009-09-12.mk41.d1t08.flac
     5:32.53       58689500 B   ---   --   ---xx  db2009-09-12.mk41.d2t01.flac
     6:32.16       69186476 B   ---   --   ---xx  db2009-09-12.mk41.d2t02.flac
     9:43.74      103015292 B   ---   --   ---xx  db2009-09-12.mk41.d2t03.flac
    25:43.41      272281676 B   ---   --   ---xx  db2009-09-12.mk41.d2t04.flac
     7:18.21       77312636 B   ---   --   ---xx  db2009-09-12.mk41.d2t05.flac
    17:07.38      181252220 B   ---   --   ---xx  db2009-09-12.mk41.d2t06.flac
     5:34.66       59072876 B   ---   --   ---xx  db2009-09-12.mk41.d2t07.flac
     1:21.41       14384876 B   ---   --   ---xx  db2009-09-12.mk41.d3t01.flac
    10:13.21      108182636 B   ---   --   ---xx  db2009-09-12.mk41.d3t02.flac
     9:34.32      101328908 B   ---   --   ---xx  db2009-09-12.mk41.d3t03.flac
     8:32.45       90422684 B   ---   --   ---xx  db2009-09-12.mk41.d3t04.flac
    16:08.10      170778764 B   ---   --   ---xx  db2009-09-12.mk41.d3t05.flac
     7:49.62       82877468 B   ---   --   ---xx  db2009-09-12.mk41.d3t06.flac
     2:15.38       23903420 B   ---   --   ---xx  db2009-09-12.mk41.d3t07.flac
     8:27.74       89608892 B   ---   --   ---xx  db2009-09-12.mk41.d3t08.flac
   211:01.53     2233526068 B                            0.5677  (23 files)
Show Checksums
ffp
db2009-09-12.mk41.d1t01.flac:8a76cd3444cc9f757c44e9ebf67e40dd
db2009-09-12.mk41.d1t02.flac:fa49fc993674263f6782be2cd5504bbf
db2009-09-12.mk41.d1t03.flac:b67b85fe7f2bb7605f0ffdad8a872646
db2009-09-12.mk41.d1t04.flac:13c79545a805ce4a74306e6d19338a7b
db2009-09-12.mk41.d1t05.flac:813280116d06b4cb17ed8b9aecdde356
db2009-09-12.mk41.d1t06.flac:58d8be2fb824dd6158a748ad12f1d30b
db2009-09-12.mk41.d1t07.flac:fadaf8893d888160edcf96425b5e8998
db2009-09-12.mk41.d1t08.flac:cd1519a82a4e00c288b6a1befd0f5616
db2009-09-12.mk41.d2t01.flac:af9a98f32237d74c1efc4ee49e7e3dfd
db2009-09-12.mk41.d2t02.flac:ec4aeafe3a6d2e92989d6cfb60480ba1
db2009-09-12.mk41.d2t03.flac:3cc67321354c6dd5e50cc3a7a45b8a8f
db2009-09-12.mk41.d2t04.flac:c057fe152224e411afebd78a1d565a6c
db2009-09-12.mk41.d2t05.flac:108d2c82752bd37b481669bbde63fadd
db2009-09-12.mk41.d2t06.flac:7168503b8238359de7a4ac02771bbea5
db2009-09-12.mk41.d2t07.flac:61bf91484a0105081fe504d4f4ac7426
db2009-09-12.mk41.d3t01.flac:dc911873f362f550a4032da6782ba63c
db2009-09-12.mk41.d3t02.flac:bfbdc2b713d4c2fcedc1a7e050fe85c3
db2009-09-12.mk41.d3t03.flac:70bdc1c1da06a0a536e8baef6c1365f6
db2009-09-12.mk41.d3t04.flac:47590037cd86a93a955a9a8b72f37beb
db2009-09-12.mk41.d3t05.flac:7e069708838418390e2deeee6b432a4a
db2009-09-12.mk41.d3t06.flac:d46b609d8872158711d15106bd139add
db2009-09-12.mk41.d3t07.flac:076912df9f40e61a25e2923aa2eb2886
db2009-09-12.mk41.d3t08.flac:979f654844a9fd0aa8bc248113e0b126

Comments
Add Comment
Date User Comment