Browse Collections Artists Sources   Search Dates

Add Show    List Management    Help


Grateful Dead 10/25/80
Radio City Music Hall, New York, NY
Comments Add Comment    Source Collectors    Add to Collection    Add to Want List    History
Source # 102405 Other Sources
Entered by dr.unclear
Checksums flac-md5 , ffp
Disc Counts 2 / 3
Media Size
Date Circulated
Date Added

11/06/2009
Source Summary flac16; Recording Info:(FOB) Sony ECM-280 -> Cassette Master (Sony TC-D5M/Maxell UDXLII-C90/Dolby B); Transfer Info:Cassette Master (Nakamichi DR-1/Dolby B) -> Sound Devices 744T (24bit/96k) -> Adobe Audition v1.5 -> Samplitude Professional v10.22 -> FLAC/16; Recorded By Jim Wise; All Transfers and Mastering By Charlie Miller 
  Archive
Source Information - Download Text | Download Zip
Grateful Dead - October 25, 1980
Radio City Music Hall - New York, NY

Recording Info:
(FOB) Sony ECM-280 -> Cassette Master (Sony TC-D5M/Maxell UDXLII-C90/Dolby B)

Transfer Info:
Cassette Master (Nakamichi DR-1/Dolby B) -> Sound Devices 744T (24bit/96k) ->
Adobe Audition v1.5 -> Samplitude Professional v10.22 -> FLAC/16
(3 Discs Audio / 2 Discs FLAC)

All Transfers and Mastering By Charlie Miller
[email protected]
November 6, 2009

Patch Info:
Nakamichi 700 -> Master Cassette (shnid=93804) supplies:
Bird Song (8:25 - end of track)

Notes:
-- All disc changes are seamless
-- Recorded By Jim Wise
-- Thanks to Jim Wise for lending me his master cassettes
-- Thanks to Joe B. Jones for his help with the pitch correction

Set 1:
d1t01 - Tuning
d1t02 - Deep Elem Blues
d1t03 - The Race Is On
d1t04 - I've Been All Around This World
d1t05 - Monkey And The Engineer
d1t06 - To Lay Me Down ->
d1t07 - El Paso
d1t08 - Bird Song
d1t09 - Heaven Help The Fool
d1t10 - Dire Wolf ->
d1t11 - Ripple

Set 2:
d1t12 - Tuning
d1t13 - Mississippi Half-Step Uptown Toodeloo ->
d1t14 - Franklin's Tower
d2t01 - Me And My Uncle ->
d2t02 - Big River
d2t03 - High Time
d2t04 - New Minglewood Blues
d2t05 - Ramble On Rose ->
d2t06 - Looks Like Rain
d2t07 - Deal

Set 3:
d2t08 - Tuning
d2t09 - Cold Rain And Snow ->
d2t10 - Lost Sailor ->
d2t11 - Saint Of Circumstance
d3t01 - Uncle John's Band ->
d3t02 - Playing In The Band ->
d3t03 - Drums ->
d3t04 - Space ->
d3t05 - The Other One ->
d3t06 - Black Peter ->
d3t07 - Around And Around ->
d3t08 - One More Saturday Night

Encore:
d3t09 - U.S. Blues


SHNTOOL OUTPUT:
    length     expanded size   cdr  WAVE problems filename
     1:36.32       17009708    ---   --   -----   gd80-10-25d1t01.wav
     5:11.28       54926300    ---   --   -----   gd80-10-25d1t02.wav
     2:48.46       29743436    ---   --   -----   gd80-10-25d1t03.wav
     4:57.59       52529612    ---   --   -----   gd80-10-25d1t04.wav
     2:38.50       27988844    ---   --   -----   gd80-10-25d1t05.wav
     9:08.71       96834236    ---   --   -----   gd80-10-25d1t06.wav
     5:03.54       53576252    ---   --   -----   gd80-10-25d1t07.wav
     9:16.27       98141948    ---   --   -----   gd80-10-25d1t08.wav
     7:33.05       79921004    ---   --   -----   gd80-10-25d1t09.wav
     3:29.69       37029932    ---   --   -----   gd80-10-25d1t10.wav
     4:55.19       52082732    ---   --   -----   gd80-10-25d1t11.wav
     1:31.07       16068908    ---   --   -----   gd80-10-25d1t12.wav
     7:05.43       75071180    ---   --   -----   gd80-10-25d1t13.wav
     8:14.41       87238076    ---   --   -----   gd80-10-25d1t14.wav
     3:03.42       32380028    ---   --   -----   gd80-10-25d2t01.wav
     5:55.16       62659676    ---   --   -----   gd80-10-25d2t02.wav
     9:02.53       95733500    ---   --   -----   gd80-10-25d2t03.wav
     7:58.21       84368636    ---   --   -----   gd80-10-25d2t04.wav
     6:58.61       73878716    ---   --   -----   gd80-10-25d2t05.wav
     7:23.54       78272252    ---   --   -----   gd80-10-25d2t06.wav
     6:47.10       71818364    ---   --   -----   gd80-10-25d2t07.wav
     1:31.17       16092428    ---   --   -----   gd80-10-25d2t08.wav
     6:27.71       68433836    ---   --   -----   gd80-10-25d2t09.wav
     6:46.52       71740748    ---   --   -----   gd80-10-25d2t10.wav
     8:04.45       85483484    ---   --   -----   gd80-10-25d2t11.wav
     6:26.20       68137484    ---   --   -----   gd80-10-25d3t01.wav
     9:59.63      105811820    ---   --   -----   gd80-10-25d3t02.wav
     9:32.28      100966700    ---   --   -----   gd80-10-25d3t03.wav
     3:51.48       40861340    ---   --   -----   gd80-10-25d3t04.wav
     4:54.00       51861644    ---   --   -----   gd80-10-25d3t05.wav
    10:13.33      108210860    ---   --   -----   gd80-10-25d3t06.wav
     3:57.58       41943260    ---   --   -----   gd80-10-25d3t07.wav
     4:51.42       51431228    ---   --   -----   gd80-10-25d3t08.wav
     5:09.42       54606428    ---   --   -----   gd80-10-25d3t09.wav
   202:27.52     2142854600 B                     (totals for 34 files)
Show Checksums
flac-md5
50a673c26a27950a6543ca162e9562aa *gd80-10-25d1t01.flac
1d9d48ac6b17f812ca6e60e2de1074c9 *gd80-10-25d1t02.flac
8bb890baebf910fc8ca54672f7f15283 *gd80-10-25d1t03.flac
1303a62faccfdc9279151ce71116b007 *gd80-10-25d1t04.flac
4ee6f58331ef2796720c2272a9055ecb *gd80-10-25d1t05.flac
a22f9c9707f0f5471b87618c7d28251f *gd80-10-25d1t06.flac
a3b407d896555fbc25c2dc140f600ae6 *gd80-10-25d1t07.flac
1a2664dbd97ce27a811f4ecc1243b500 *gd80-10-25d1t08.flac
333709dedfb78ae058781a52487076f0 *gd80-10-25d1t09.flac
2d924d99908cd43215915c213ef426cb *gd80-10-25d1t10.flac
497580612a592f6b0041dc2045a0935f *gd80-10-25d1t11.flac
5ac64281bc41501ad7144f1ddd3a4d28 *gd80-10-25d1t12.flac
b67e98eb6f4c742581e4f60bd580c389 *gd80-10-25d1t13.flac
c6f6da93af79046e468d70d0a012a0dd *gd80-10-25d1t14.flac
92e53c29888f6081c38455625f8bcd4f *gd80-10-25d2t01.flac
2a2bc03ad916590dca53584f4cb81f98 *gd80-10-25d2t02.flac
fda116133db92d53f4a31f274ee07659 *gd80-10-25d2t03.flac
2fc23eed440e6746946366b57ad0674d *gd80-10-25d2t04.flac
11e23d596a9c555f21449a8e141481a2 *gd80-10-25d2t05.flac
37254646d277720d6a793133476f2f9e *gd80-10-25d2t06.flac
92e8cab4d57fbe10f2c0d553417a54bb *gd80-10-25d2t07.flac
1b83afbd5802172c3e6353e7c7bb9620 *gd80-10-25d2t08.flac
0d6b7c50fe74919d396bc82407ad0b35 *gd80-10-25d2t09.flac
ed457adbf7dcd5c5e3317da6f9de0dd8 *gd80-10-25d2t10.flac
99c238cd7555d913f9bbf4801a7a33ff *gd80-10-25d2t11.flac
b040e2d6e8415aa621bf14c963f3b436 *gd80-10-25d3t01.flac
d5409b6143077e162377dd69c450371c *gd80-10-25d3t02.flac
36ea041b001e3028f5c0677443f23fec *gd80-10-25d3t03.flac
c88e17387dd12be66bfff5edd6efa3fa *gd80-10-25d3t04.flac
d08154c6b1321bd12f00b9959fbdc4b8 *gd80-10-25d3t05.flac
2e6a30b27478f9050039870eac6315a0 *gd80-10-25d3t06.flac
d6b3c08e64dee7acfc28d73e5b1951c8 *gd80-10-25d3t07.flac
912cf6706f975e91e891eac260cb56c9 *gd80-10-25d3t08.flac
cf448cc86c78ac80fcc25f8ebadaa8dc *gd80-10-25d3t09.flac
ffp
gd80-10-25d1t01.flac:7ac46bfeac63d2611e2d03602b0ed60f
gd80-10-25d1t02.flac:7cf04403ca6a121eaa93c6137af7e19f
gd80-10-25d1t03.flac:9c17df8fb85f885395dcedcc35f1bd6c
gd80-10-25d1t04.flac:96702c24dbbdb23e38aeb144d81ce335
gd80-10-25d1t05.flac:e942eeb167050e82e6915d6ecc46c366
gd80-10-25d1t06.flac:8c0e1ad669f61abc0c681d117b98cc92
gd80-10-25d1t07.flac:1d9314bceabee0d254d7a79e4c87549d
gd80-10-25d1t08.flac:1bdb2fdc7b1cee7a59832745a845422e
gd80-10-25d1t09.flac:7b802e4322d9308a8569fc815ef29964
gd80-10-25d1t10.flac:bd32c9b8ec95761eb9ae2d93e7e73623
gd80-10-25d1t11.flac:d6d58c34bd0f8543074651f4426620ad
gd80-10-25d1t12.flac:d313c4f15c3f97ff3824392e475f73f6
gd80-10-25d1t13.flac:5def7955e76194d599f345607e9b70aa
gd80-10-25d1t14.flac:05cb7e7f8b1624b14db20fd5ee43bd01
gd80-10-25d2t01.flac:44653d1cbae4112267d72d5cfd4d88a6
gd80-10-25d2t02.flac:7a81cafba30ee83f3abadbc3fe6c1bd1
gd80-10-25d2t03.flac:ea118663ba8a18fd5aa8f0e2201cbc4b
gd80-10-25d2t04.flac:502b03e7ba20da59f8a300bb3d21e98e
gd80-10-25d2t05.flac:e385c3ae9dc0abfb2dd76e2dbac64733
gd80-10-25d2t06.flac:36b8e1ccde1f36aa4b4c7f8521e7e137
gd80-10-25d2t07.flac:1f71d730051413e23c56e9e9e4697d73
gd80-10-25d2t08.flac:e504c25567b9a60918ba13f1170b4c95
gd80-10-25d2t09.flac:eb10f6056521289b25d52f86551517ff
gd80-10-25d2t10.flac:a9aa84e4173fc1cb05eef37935e6dfaa
gd80-10-25d2t11.flac:bb1595a3c6ad489d71eabec2fcd86747
gd80-10-25d3t01.flac:4a94052276cca4a9d1171ffa160b7ffd
gd80-10-25d3t02.flac:d1f2f094f39feac8ed835842e73a6d96
gd80-10-25d3t03.flac:19655fb38f43eb33004b44f8dd8b58c3
gd80-10-25d3t04.flac:a989ae8f448af817aef95a883483ff4c
gd80-10-25d3t05.flac:e60813f279e7793f183fd57d980f3005
gd80-10-25d3t06.flac:2691b072bd9c7c252b16f7b4c6656cb8
gd80-10-25d3t07.flac:9d7fa82329389379084ec227f782165f
gd80-10-25d3t08.flac:ffe728bfac15105b6a73d5a560fb6a3c
gd80-10-25d3t09.flac:98e823af842584d38dce9287b32b3cad

Comments
Add Comment
Other Sources (comments)
AUD>MC>DAT>CDR; Seeded to... (2) flac16; Recording... (0) flac24; AUD: 2x... (0) flac16; AUD: 2x... (0) flac16; Nak 700's >... (1)
Date User Comment