Browse Collections Artists Sources   Search Dates

Add Show    List Management    Help


Grateful Dead 09/05/79
Madison Square Garden, New York, NY
Comments Add Comment    Source Collectors    Add to Collection    Add to Want List    History
Source # 102476 Other Sources
Entered by Matt Vernon
Checksums ffp , flac-md5
Disc Counts 2 / 3
Media Size
Date Circulated
Date Added
11/13/2009
11/11/2009
Source Summary flac16; Matrix by Hunter Seamons using Final Cut Pro (SHN & FLAC>AIFF>Final Cut>WAV>FLAC) 
  Archive
Source Information - Download Text | Download Zip
Grateful Dead
Madison Square Garden
New York, NY
September 5, 1979

Jerry Garcia - Lead Guitar, Vocals
Mickey Hart - Drums
Bill Kreutzmann - Drums
Phil Lesh - Electric Bass, Vocals
Brent Mydland - Keyboards, Vocals
Bob Weir - Rhythm Guitar, Vocals



*Matrix*


-----------------------------------------------------------------
SBD (shnid=79748):

Recording Info:
SBD -> Master Cassette -> Reel -> Dat -> PCM -> CD

Transfer Info:
CD -> Samplitude Professional v8.01 -> FLAC
(3 Discs Audio / 2 Discs FLAC)

All Transfers and Mastering By Charlie Miller
[email protected]
November 5, 2006

[Cuts:]
Half-Step (first several seconds)
Loser (complete track)
Promised Land (complete track)
Scarlet Begonias (0:00 - 0:27)
Estimated Prophet (4:40 - 7:16)
Eyes Of The World (7:27 - 8:18)
Black Peter (4:36 - 5:01)
Bertha (3:01 - 5:03)

-----------------------------------------------------------------
AUD (shnid=8457):

FOB (11th row, 4 seats right of center) NAK 700s>TC-158>MAC>FC/DD 2496>CDR

Recording by Barry Glassberg

[First moment of Half-Step missing; tape flip in Drums]

-----------------------------------------------------------------
Thank you to Charlie Miller for the SBD transfer,
and to Barry Glassberg for recording the show.

Matrix by Hunter Seamons using Final Cut Pro (SHN & FLAC>AIFF>Final Cut>WAV>FLAC)
November 11, 2009



Set I
-----
d1t01 - Mississippi Half-Step Uptown Toodeloo ->
d1t02 - Franklin's Tower
d1t03 - Mama Tried ->
d1t04 - Mexicali Blues
d1t05 - Peggy-O
d1t06 - Cassidy
d1t07 - Loser
d1t08 - Promised Land

Set II
-----
d2t01 - Tuning
d2t02 - Scarlet Begonias ->
d2t03 - Fire On The Mountain
d2t04 - Estimated Prophet ->
d2t05 - Eyes Of The World ->
d2t06 - Drums ->
d3t01 - Space ->
d3t02 - Black Peter ->
d3t03 - I Need A Miracle ->
d3t04 - Bertha ->
d3t05 - Good Lovin'

Encore
------
d3t06 - U.S. Blues



Notes:

1) Some light EQ and level adjustments were performed. The right channel of the SBD was low during a portion of set 2. This was adjusted.

2) Great second set.


    length     expanded size    cdr  WAVE problems  fmt   ratio  filename
     8:01.58       84984860 B   ---   --   ---xx  gd79-09-05d1t01.flac
    11:13.38      118806620 B   ---   --   ---xx  gd79-09-05d1t02.flac
     2:31.37       26723468 B   ---   --   ---xx  gd79-09-05d1t03.flac
     4:35.40       48604124 B   ---   --   ---xx  gd79-09-05d1t04.flac
     7:30.19       79424732 B   ---   --   ---xx  gd79-09-05d1t05.flac
     5:24.44       57257132 B   ---   --   ---xx  gd79-09-05d1t06.flac
     9:32.48      101013740 B   ---   --   ---xx  gd79-09-05d1t07.flac
     4:36.08       48705260 B   ---   --   ---xx  gd79-09-05d1t08.flac
     1:31.37       16139468 B   ---   --   ---xx  gd79-09-05d2t01.flac
    12:29.14      132156572 B   ---   --   ---xx  gd79-09-05d2t02.flac
    12:48.25      135534044 B   ---   --   ---xx  gd79-09-05d2t03.flac
    12:39.61      134031116 B   ---   --   ---xx  gd79-09-05d2t04.flac
    11:57.46      126587036 B   ---   --   ---xx  gd79-09-05d2t05.flac
    10:22.25      109779644 B   ---   --   ---xx  gd79-09-05d2t06.flac
    12:50.62      135973868 B   ---   --   ---xx  gd79-09-05d3t01.flac
    10:56.67      115876028 B   ---   --   ---xx  gd79-09-05d3t02.flac
     5:21.17       56664428 B   ---   --   ---xx  gd79-09-05d3t03.flac
     6:15.30       66220604 B   ---   --   ---xx  gd79-09-05d3t04.flac
     8:02.69       85187132 B   ---   --   ---xx  gd79-09-05d3t05.flac
     5:47.30       61281404 B   ---   --   ---xx  gd79-09-05d3t06.flac
   164:29.25     1740951280 B                            0.5728  (20 files)
Show Checksums
ffp
gd79-09-05d1t01.flac:6910ce0e990d836709bf996c02fa0313
gd79-09-05d1t02.flac:ab8059e141a1783676d31cb2b1567967
gd79-09-05d1t03.flac:39e3b5594333e02e7b5e7b56ad24bf9c
gd79-09-05d1t04.flac:13ac75ca6c67fe8229809c1288dd756e
gd79-09-05d1t05.flac:c4c66e907acb004ab89ca758161489d1
gd79-09-05d1t06.flac:e2c0577e9a1c09234eb5dfa95c0aaab8
gd79-09-05d1t07.flac:8ded1315e27d0b9bfc0b3da9b515e63a
gd79-09-05d1t08.flac:07ba93dafcf85158fafe00eb8911cad5
gd79-09-05d2t01.flac:ddbf5aebeb58d370bc8a10fb6703e797
gd79-09-05d2t02.flac:a3d07a8e6ab0ca3d97313cb8de1dd410
gd79-09-05d2t03.flac:566e3f74e8f097c580c5eacb6f7ba6b8
gd79-09-05d2t04.flac:e185ca6f045f4b70e4a07d4501f06612
gd79-09-05d2t05.flac:a0a2aaa124a762a06a4de5489891889e
gd79-09-05d2t06.flac:a421bdb9d6776914abfc9c6aa473a5c4
gd79-09-05d3t01.flac:67b822704246697517a292b879042a05
gd79-09-05d3t02.flac:0c015d35b3f415e1eb5ce792c6b612ea
gd79-09-05d3t03.flac:e50885d9660d5f35b46ee3591b69472f
gd79-09-05d3t04.flac:568d120b6f2ec46f60b8fee502690b18
gd79-09-05d3t05.flac:798e2a1e2ed7280d5f3de3e3343d5c9d
gd79-09-05d3t06.flac:3e6cc32f4b195c65e8022c3e3621d807
flac-md5
1d18134fd323906623d7aa1fcbf27f6a *gd79-09-05d1t01.flac
0727971272ca1c9ce4d2e90be7f74639 *gd79-09-05d1t02.flac
be6e40199f3c34d165fad9bd69069b17 *gd79-09-05d1t03.flac
8153949074c7f466561fe719d84b0952 *gd79-09-05d1t04.flac
fcd7c5237eb1971ca30284b3a028648c *gd79-09-05d1t05.flac
925e8623a9409bfae15ec8937b1534f7 *gd79-09-05d1t06.flac
f35c3b011b84add0d7692a28d67084b2 *gd79-09-05d1t07.flac
096e4abccde558dfc410b86c8c684e54 *gd79-09-05d1t08.flac
aa139a911a7cb354b1b8cf242d89a816 *gd79-09-05d2t01.flac
fb853483ba28d88f3ea890d7f4ef1888 *gd79-09-05d2t02.flac
2c23448bac2204ee54840fcac17b0a64 *gd79-09-05d2t03.flac
d810f8bd25065114ad87d6f8b2480ccd *gd79-09-05d2t04.flac
e9d5a4d9b25d32a285ed22baee8518a1 *gd79-09-05d2t05.flac
c3eda3aefca225ea9e7827875d3d9e58 *gd79-09-05d2t06.flac
ee2d74d8a3dd01db5b31df2efe1b8c6e *gd79-09-05d3t01.flac
a81a821993a0493031d45779ebd50001 *gd79-09-05d3t02.flac
0827e6ef9410d47e5423acac4b45171b *gd79-09-05d3t03.flac
dce87d79bb05bc61db1cd282bb2af052 *gd79-09-05d3t04.flac
4ae0bea5531eb4898259049fcf14c242 *gd79-09-05d3t05.flac
e5d0d4518c2131af2bc774766ce99618 *gd79-09-05d3t06.flac

Comments
Add Comment
Other Sources (comments)
Recording by Barry... (0) Recording by Barry... (0) Sources: Primary... (1) flac16; Recording... (0) flac16; Matrix by... (0)
Date User Comment