Browse Collections Artists Sources   Search Dates

Add Show    List Management    Help


Drive-By Truckers 05/06/08
Crofoot Ballroom, Pontiac, MI
Comments Add Comment    Source Collectors    Add to Collection    Add to Want List    History
Source # 102555 Other Sources
Entered by
Checksums ffp
Disc Counts 0 / 0
Media Size
Date Circulated
Date Added
05/08/08
11/15/2009
Source Summary source: Schoeps CCM4V'S(din)>Lunatec V2>Sound Devices 722 (24/48)
location: FOB/DFC/KFC/ZFC/AARP 36' From Stage Clamped to Balcony Rail
DSP: Sound Devices 722>Sound Forge 7.0>CD Wave>flac(16)
Recorded By: The Z-Man 
Source Information - Download Text | Download Zip
Drive By Truckers
Crofoot Ballroom
Pontiac, Michigan
5/6/2008

source: Schoeps CCM4V'S(din)>Lunatec V2>Sound Devices 722 (24/48)
location: FOB/DFC/KFC/ZFC/AARP 36' From Stage Clamped to Balcony Rail
DSP: Sound Devices 722>Sound Forge 7.0>CD Wave>flac(16)
Recorded By: The Z-Man
Seeded By: The Z-Man

Disc I

01 Intro Music
02 Zip City >
03 The Righteous Path >
04 Uncle Frank
05 Puttin' People on the Moon >
06 I'm 18
07 Checkout Time in Las Vegas
08 You and Your Crystal Meth
09 3 Dimes Down >
10 The Man I Shot
11 I'm Sorry Houston
12 The Opening Act
13 Cooley USA Banter
14 Gravity's Gone >
15 The Tough Sell

Disc II

01 Where the Devil Don't Stay
02 Dead, Drunk, and Naked >
03 Guitar Man Upstairs >
04 Ronnie and Neil >
05 The Night GG Allen Came to Town
06 Shut Your Mouth and Get Your Ass on the Plane >
07 Lookout Mountain
Encore:
08 Banter
09 A Ghost to Most >
10 Sink Hole >
11 Marry Me >
12 *People Who Died

* With the Dexateens and assorted floozies dancin' on stage!

Entire Show With Jay Gonzalez on Keyboards

drivebytruckers2008-05-06d01t01.flac:c185e46eac3d4e9a7d47880c29de7f5d
drivebytruckers2008-05-06d01t02.flac:db8317c6a49843ee6137458197567ce4
drivebytruckers2008-05-06d01t03.flac:fc9ef7aea00a4ec64deac6a7268d69f9
drivebytruckers2008-05-06d01t04.flac:3e9221f90b82686b124418c1010ee8f3
drivebytruckers2008-05-06d01t05.flac:6f07770296e066b9c7cc49ef0963250f
drivebytruckers2008-05-06d01t06.flac:ce61357303111080545bc722e8a60aad
drivebytruckers2008-05-06d01t07.flac:7f3649a1ac722fcfef336f3ca54b9e44
drivebytruckers2008-05-06d01t08.flac:8dcc069684ae2a537027b6c2bf23c52f
drivebytruckers2008-05-06d01t09.flac:81aee64cb504ff51736b650fef7cbd90
drivebytruckers2008-05-06d01t10.flac:bc38d1c49b4cf3ae0b8bfe9e821f9ab0
drivebytruckers2008-05-06d01t11.flac:85c403ecb92fa2459707b9cde33e55cb
drivebytruckers2008-05-06d01t12.flac:b4d1b075de3d2dfdf9c32afa96e87a24
drivebytruckers2008-05-06d01t13.flac:8db29d9c5f90ddf863c482cdc56333e5
drivebytruckers2008-05-06d01t14.flac:954faf54d2e32d078bb1c00a8f689643
drivebytruckers2008-05-06d01t15.flac:3edc132f6c0c67ccc7bc20a111acae42
drivebytruckers2008-05-06d02t01.flac:751badf72a2804a4d0e28ea214ea5b14
drivebytruckers2008-05-06d02t02.flac:40f1443e63f094c409534514c4b7fe86
drivebytruckers2008-05-06d02t03.flac:a1364efd5c0ca616cfbe5d4cd4066bfc
drivebytruckers2008-05-06d02t04.flac:bc028237f3ee43b499007769017f9940
drivebytruckers2008-05-06d02t05.flac:1f62137a62e83a84cc97995501c09af5
drivebytruckers2008-05-06d02t06.flac:c9a5fae41aa2412311ae7eef89bf3ac3
drivebytruckers2008-05-06d02t07.flac:1d524b6e5108bb09a9206746927b53e3
drivebytruckers2008-05-06d02t08.flac:5f84dbeb5a026f5773ffe749115be0d8
drivebytruckers2008-05-06d02t09.flac:56c4c0bda42e594ebde29e84f88375b6
drivebytruckers2008-05-06d02t10.flac:a2b5258c608ba3f6be5707fd99ca9eec
drivebytruckers2008-05-06d02t11.flac:33a4a637f81fb069d3190f02ff479e40
drivebytruckers2008-05-06d02t12.flac:9a87c900e0d725b7dfb035bd811292ff

length     expanded size   cdr  WAVE problems filename
     2:06.64       22376972    ---   --   ---xx   drivebytruckers2008-05-06d01t01.flac
     5:52.50       62210444    ---   --   ---xx   drivebytruckers2008-05-06d01t02.flac
     4:32.62       48126668    ---   --   ---xx   drivebytruckers2008-05-06d01t03.flac
     5:23.42       57076028    ---   --   ---xx   drivebytruckers2008-05-06d01t04.flac
     6:54.67       73187228    ---   --   ---xx   drivebytruckers2008-05-06d01t05.flac
     5:27.06       57696956    ---   --   ---xx   drivebytruckers2008-05-06d01t06.flac
     2:47.72       29628188    ---   --   ---xx   drivebytruckers2008-05-06d01t07.flac
     7:19.54       77566652    ---   --   ---xx   drivebytruckers2008-05-06d01t08.flac
     3:35.10       37949564    ---   --   ---xx   drivebytruckers2008-05-06d01t09.flac
     5:47.45       61316684    ---   --   ---xx   drivebytruckers2008-05-06d01t10.flac
     3:34.57       37883708    ---   --   ---xx   drivebytruckers2008-05-06d01t11.flac
     7:33.06       79923356    ---   --   ---xx   drivebytruckers2008-05-06d01t12.flac
     1:07.61       11962316    ---   --   ---xx   drivebytruckers2008-05-06d01t13.flac
     4:11.42       44375228    ---   --   ---xx   drivebytruckers2008-05-06d01t14.flac
     5:13.44       55316732    ---   --   ---xx   drivebytruckers2008-05-06d01t15.flac
     5:48.70       61551884    ---   --   ---xx   drivebytruckers2008-05-06d02t01.flac
     5:53.52       62391548    ---   --   ---xx   drivebytruckers2008-05-06d02t02.flac
     4:16.33       45236060    ---   --   ---xx   drivebytruckers2008-05-06d02t03.flac
     5:27.52       57805148    ---   --   ---xx   drivebytruckers2008-05-06d02t04.flac
     8:10.62       86581868    ---   --   ---xx   drivebytruckers2008-05-06d02t05.flac
     4:44.71       50264636    ---   --   ---xx   drivebytruckers2008-05-06d02t06.flac
     5:44.55       60811004    ---   --   ---xx   drivebytruckers2008-05-06d02t07.flac
     0:49.70        8808284    ---   --   ---xx   drivebytruckers2008-05-06d02t08.flac
     4:53.70       51849884    ---   --   ---xx   drivebytruckers2008-05-06d02t09.flac
     4:47.15       50662124    ---   --   ---xx   drivebytruckers2008-05-06d02t10.flac
     6:37.36       70115516    ---   --   ---xx   drivebytruckers2008-05-06d02t11.flac
     7:40.46       81252236    ---   --   ---xx   drivebytruckers2008-05-06d02t12.flac
   136:25.39     1443926916 B                     (totals for 27 files, 0.5330 overall compression ratio)

Show Checksums
ffp
drivebytruckers2008-05-06d01t01.flac:c185e46eac3d4e9a7d47880c29de7f5d
drivebytruckers2008-05-06d01t02.flac:db8317c6a49843ee6137458197567ce4
drivebytruckers2008-05-06d01t03.flac:fc9ef7aea00a4ec64deac6a7268d69f9
drivebytruckers2008-05-06d01t04.flac:3e9221f90b82686b124418c1010ee8f3
drivebytruckers2008-05-06d01t05.flac:6f07770296e066b9c7cc49ef0963250f
drivebytruckers2008-05-06d01t06.flac:ce61357303111080545bc722e8a60aad
drivebytruckers2008-05-06d01t07.flac:7f3649a1ac722fcfef336f3ca54b9e44
drivebytruckers2008-05-06d01t08.flac:8dcc069684ae2a537027b6c2bf23c52f
drivebytruckers2008-05-06d01t09.flac:81aee64cb504ff51736b650fef7cbd90
drivebytruckers2008-05-06d01t10.flac:bc38d1c49b4cf3ae0b8bfe9e821f9ab0
drivebytruckers2008-05-06d01t11.flac:85c403ecb92fa2459707b9cde33e55cb
drivebytruckers2008-05-06d01t12.flac:b4d1b075de3d2dfdf9c32afa96e87a24
drivebytruckers2008-05-06d01t13.flac:8db29d9c5f90ddf863c482cdc56333e5
drivebytruckers2008-05-06d01t14.flac:954faf54d2e32d078bb1c00a8f689643
drivebytruckers2008-05-06d01t15.flac:3edc132f6c0c67ccc7bc20a111acae42
drivebytruckers2008-05-06d02t01.flac:751badf72a2804a4d0e28ea214ea5b14
drivebytruckers2008-05-06d02t02.flac:40f1443e63f094c409534514c4b7fe86
drivebytruckers2008-05-06d02t03.flac:a1364efd5c0ca616cfbe5d4cd4066bfc
drivebytruckers2008-05-06d02t04.flac:bc028237f3ee43b499007769017f9940
drivebytruckers2008-05-06d02t05.flac:1f62137a62e83a84cc97995501c09af5
drivebytruckers2008-05-06d02t06.flac:c9a5fae41aa2412311ae7eef89bf3ac3
drivebytruckers2008-05-06d02t07.flac:1d524b6e5108bb09a9206746927b53e3
drivebytruckers2008-05-06d02t08.flac:5f84dbeb5a026f5773ffe749115be0d8
drivebytruckers2008-05-06d02t09.flac:56c4c0bda42e594ebde29e84f88375b6
drivebytruckers2008-05-06d02t10.flac:a2b5258c608ba3f6be5707fd99ca9eec
drivebytruckers2008-05-06d02t11.flac:33a4a637f81fb069d3190f02ff479e40
drivebytruckers2008-05-06d02t12.flac:9a87c900e0d725b7dfb035bd811292ff

Comments
Add Comment
Date User Comment