Browse Collections Artists Sources   Search Dates

Add Show    List Management    Help


Greensky Bluegrass 02/20/09
Beachland Ballroom, Cleveland, OH
Comments Add Comment    Source Collectors    Add to Collection    Add to Want List    History
Source # 102718 Other Sources
Entered by
Checksums ffp
Disc Counts 0 / 0
Media Size
Date Circulated
Date Added
02/21/09
11/20/2009
Source Summary CCM4V'S(din)>Lunatec V2>Benchmark AD2K>Sound Devices 722 (24/48)
Location: FOB/DFC/KFC/ZFC/AARP 24' From Stage, 7' High
DSP: Sound Devices 722>Sound Forge 9.0>CD Wave>flac(16)
Recorded By: Z-Man 
Source Information - Download Text | Download Zip
Greensky Bluegrass
Beachland Ballroom
Cleveland, Ohio
2/20/2009

Source: Schoeps CCM4V'S(din)>Lunatec V2>Benchmark AD2K>
Sound Devices 722 (24/48)
Location: FOB/DFC/KFC/ZFC/AARP 24' From Stage, 7' High
DSP: Sound Devices 722>Sound Forge 9.0>CD Wave>flac(16)
Recorded By: Z-Man
Seeded By: Z-Man

Disc I 1st Set

01 Tuning >
02 200 Miles From Montana
03 Jesus On The Mainline
04 Don't Bury Me In The Cold, Cold Ground
05 Reverend
06 Gold Rush
07 Can't Make Time
08 Freeborn Man >
09 Indian Trail
10 King Of The Hill

Disc II 2nd Set

01 Tuning
02 Against The Days >
03 Shuckin' The Corn
04 Banter on Tuesday Letter
05 Tuesday Letter
06 Radio Blues
07 Train Junkie
08 Banter
09 Sweetwater Sea
10 Frankilin's Tower >
11 Break Mountain Brokedown >
12 Franklin's Tower >
13 Break Mountain Brokedown
14 Dancin' In The Dark >
15 Grow Bananas
16 Walkin' The Dog
17 Can't Stop Now
Encore:
18 Thanks/Announcements
19 Old Barns >
20 Send Me Your Address From Heaven

Flac fingerprint

gsbg2009-02-20d01t01.flac:ad4034f8b2584d259d4e4227f5ef7080
gsbg2009-02-20d01t02.flac:8fb82ffcc435f7fe127bc73c902662d3
gsbg2009-02-20d01t03.flac:2d49d9859665094a0d6c2197ba5748b3
gsbg2009-02-20d01t04.flac:8a7818d84082c32a2fc2c6f2e8a9baaf
gsbg2009-02-20d01t05.flac:3a68f7c8d98448c415b50fd3a063e942
gsbg2009-02-20d01t06.flac:a25beba381e53bfd16c9a1fdce6c896b
gsbg2009-02-20d01t07.flac:624e73e4aee358c57b089f83b70a4210
gsbg2009-02-20d01t08.flac:1e926e6b4cd328e45b968780b4dc9e45
gsbg2009-02-20d01t09.flac:6e30b7cf0c8553190f9622f8692b6fc1
gsbg2009-02-20d01t10.flac:d0055d65304f3dde138ffbe5c7017f22
gsbg2009-02-20d02t01.flac:2930e5ee840167b92b93feb0d6ed29a1
gsbg2009-02-20d02t02.flac:f92aa52968582739dfaace0f924dbf50
gsbg2009-02-20d02t03.flac:2e99c456d65f36360384a1d7fd25d3d8
gsbg2009-02-20d02t04.flac:ac1a665a7a0dba6000b2b03a68021bc2
gsbg2009-02-20d02t05.flac:133d534b65c592e94aa7272860f93de2
gsbg2009-02-20d02t06.flac:9aca53d18d5ff23f647d5d425ce75364
gsbg2009-02-20d02t07.flac:e1708a2c1586a27f05ceb50f03ac73b4
gsbg2009-02-20d02t08.flac:4040ff91bb8a16905a883d5218e0eb5f
gsbg2009-02-20d02t09.flac:144e38cfb36110c618f623c0bd26c38c
gsbg2009-02-20d02t10.flac:6a9bf360881cabce0e6ff5985564032e
gsbg2009-02-20d02t11.flac:6ec9a477c74f594ba385d3a857178b0d
gsbg2009-02-20d02t12.flac:ae259ddbfdc70762913011d4650b9ebb
gsbg2009-02-20d02t13.flac:3f156e86fe7e901a5fc815a6afa22a19
gsbg2009-02-20d02t14.flac:d3610665d04e7f49ecf72be02bb9837d
gsbg2009-02-20d02t15.flac:7fd063c2e7496d9299f31e7ed5019a1f
gsbg2009-02-20d02t16.flac:204f7ec792cbc1708c46f08f43197653
gsbg2009-02-20d02t17.flac:e7edcfbac6846279bf234f15bd888ebd
gsbg2009-02-20d02t18.flac:6a6af41895069285dd33bc1629f24328
gsbg2009-02-20d02t19.flac:72e1274b3af12a44c0e1749b32197a57
gsbg2009-02-20d02t20.flac:c482bfe1081cef4767513a0ac4484681

shntool

    length     expanded size    cdr  WAVE problems  fmt   ratio  filename
     0:31.72        5637788 B   ---   --   ---xx   flac  0.3639  gsbg2009-02-20d01t01.flac
     6:04.34       64289612 B   ---   --   ---xx   flac  0.4653  gsbg2009-02-20d01t02.flac
     3:46.45       39972284 B   ---   --   ---xx   flac  0.5057  gsbg2009-02-20d01t03.flac
     4:23.07       46409708 B   ---   --   ---xx   flac  0.4876  gsbg2009-02-20d01t04.flac
     6:00.40       63598124 B   ---   --   ---xx   flac  0.4990  gsbg2009-02-20d01t05.flac
     6:40.25       70618844 B   ---   --   ---xx   flac  0.5290  gsbg2009-02-20d01t06.flac
     4:55.16       52075676 B   ---   --   ---xx   flac  0.4757  gsbg2009-02-20d01t07.flac
    10:09.51      107547596 B   ---   --   ---xx   flac  0.4931  gsbg2009-02-20d01t08.flac
     5:08.54       54458252 B   ---   --   ---xx   flac  0.4953  gsbg2009-02-20d01t09.flac
    10:23.65      110050124 B   ---   --   ---xx   flac  0.5079  gsbg2009-02-20d01t10.flac
     0:21.47        3814988 B   ---   --   ---xx   flac  0.3715  gsbg2009-02-20d02t01.flac
     3:33.33       37650860 B   ---   --   ---xx   flac  0.4784  gsbg2009-02-20d02t02.flac
     4:04.51       43161596 B   ---   --   ---xx   flac  0.5397  gsbg2009-02-20d02t03.flac
     5:22.39       56892572 B   ---   --   ---xx   flac  0.4661  gsbg2009-02-20d02t04.flac
     3:26.73       36510140 B   ---   --   ---xx   flac  0.5480  gsbg2009-02-20d02t05.flac
     9:10.35       97102364 B   ---   --   ---xx   flac  0.5074  gsbg2009-02-20d02t06.flac
     1:26.38       15259820 B   ---   --   ---xx   flac  0.4267  gsbg2009-02-20d02t07.flac
     4:54.00       51861644 B   ---   --   ---xx   flac  0.4715  gsbg2009-02-20d02t08.flac
     0:41.69        7394732 B   ---   --   ---xx   flac  0.4778  gsbg2009-02-20d02t09.flac
     6:12.19       65665532 B   ---   --   ---xx   flac  0.5124  gsbg2009-02-20d02t10.flac
     3:11.14       33725372 B   ---   --   ---xx   flac  0.4314  gsbg2009-02-20d02t11.flac
     0:00.07          16508 B   --s   --   ---xx   flac  0.9363  gsbg2009-02-20d02t12.flac
     0:20.15        3563324 B   ---   --   ---xx   flac  0.5765  gsbg2009-02-20d02t13.flac
     5:17.60       56059964 B   ---   --   ---xx   flac  0.5014  gsbg2009-02-20d02t14.flac
     4:44.33       50175260 B   ---   --   ---xx   flac  0.4809  gsbg2009-02-20d02t15.flac
     3:07.37       33073868 B   ---   --   ---xx   flac  0.5131  gsbg2009-02-20d02t16.flac
     5:33.37       58828268 B   ---   --   ---xx   flac  0.5442  gsbg2009-02-20d02t17.flac
     0:56.21        9927836 B   ---   --   ---xx   flac  0.4443  gsbg2009-02-20d02t18.flac
     4:38.04       49048652 B   ---   --   ---xx   flac  0.5035  gsbg2009-02-20d02t19.flac
     3:53.53       41225900 B   ---   --   ---xx   flac  0.5504  gsbg2009-02-20d02t20.flac
   129:01.44     1365617208 B                            0.4986  (30 files)




Show Checksums
ffp
gsbg2009-02-20d01t01.flac:ad4034f8b2584d259d4e4227f5ef7080
gsbg2009-02-20d01t02.flac:8fb82ffcc435f7fe127bc73c902662d3
gsbg2009-02-20d01t03.flac:2d49d9859665094a0d6c2197ba5748b3
gsbg2009-02-20d01t04.flac:8a7818d84082c32a2fc2c6f2e8a9baaf
gsbg2009-02-20d01t05.flac:3a68f7c8d98448c415b50fd3a063e942
gsbg2009-02-20d01t06.flac:a25beba381e53bfd16c9a1fdce6c896b
gsbg2009-02-20d01t07.flac:624e73e4aee358c57b089f83b70a4210
gsbg2009-02-20d01t08.flac:1e926e6b4cd328e45b968780b4dc9e45
gsbg2009-02-20d01t09.flac:6e30b7cf0c8553190f9622f8692b6fc1
gsbg2009-02-20d01t10.flac:d0055d65304f3dde138ffbe5c7017f22
gsbg2009-02-20d02t01.flac:2930e5ee840167b92b93feb0d6ed29a1
gsbg2009-02-20d02t02.flac:f92aa52968582739dfaace0f924dbf50
gsbg2009-02-20d02t03.flac:2e99c456d65f36360384a1d7fd25d3d8
gsbg2009-02-20d02t04.flac:ac1a665a7a0dba6000b2b03a68021bc2
gsbg2009-02-20d02t05.flac:133d534b65c592e94aa7272860f93de2
gsbg2009-02-20d02t06.flac:9aca53d18d5ff23f647d5d425ce75364
gsbg2009-02-20d02t07.flac:e1708a2c1586a27f05ceb50f03ac73b4
gsbg2009-02-20d02t08.flac:4040ff91bb8a16905a883d5218e0eb5f
gsbg2009-02-20d02t09.flac:144e38cfb36110c618f623c0bd26c38c
gsbg2009-02-20d02t10.flac:6a9bf360881cabce0e6ff5985564032e
gsbg2009-02-20d02t11.flac:6ec9a477c74f594ba385d3a857178b0d
gsbg2009-02-20d02t12.flac:ae259ddbfdc70762913011d4650b9ebb
gsbg2009-02-20d02t13.flac:3f156e86fe7e901a5fc815a6afa22a19
gsbg2009-02-20d02t14.flac:d3610665d04e7f49ecf72be02bb9837d
gsbg2009-02-20d02t15.flac:7fd063c2e7496d9299f31e7ed5019a1f
gsbg2009-02-20d02t16.flac:204f7ec792cbc1708c46f08f43197653
gsbg2009-02-20d02t17.flac:e7edcfbac6846279bf234f15bd888ebd
gsbg2009-02-20d02t18.flac:6a6af41895069285dd33bc1629f24328
gsbg2009-02-20d02t19.flac:72e1274b3af12a44c0e1749b32197a57
gsbg2009-02-20d02t20.flac:c482bfe1081cef4767513a0ac4484681

Comments
Add Comment
Date User Comment