Browse Collections Artists Sources   Search Dates

Add Show    List Management    Help


Grateful Dead 09/02/80
Community War Memorial Auditorium, Rochester, NY
Comments Add Comment    Source Collectors    Add to Collection    Add to Want List    History
Source # 102775 Other Sources
Entered by Gary Field
Checksums ffp , flac-md5
Disc Counts 0 / 0
Media Size
Date Circulated
Date Added
11/22/2009
11/22/2009
Source Summary flac24; FOB AUD: 2x Nakamichi CM300/CP4 shotguns > Nakamichi 550 > Maxell XLII 90's, mics on stand FOB, taped by Tim Friend & Joe Morrone. Transfer: MAC > Nakamichi DR-2 > Edirol FA-66 > Wavelab > CD-Wave > TLH > FLAC 2448 Tagged. Transfer by Andrew F. 11/2009 
  Archive
Source Information - Download Text | Download Zip
GRATEFUL DEAD
War Memorial Auditorium
Rochester NY
09-02-1980

24bit/48kHz file-set

s1t01 crowd & tuning
s1t02 Minglewood Blues
s1t03 Sugaree >
s1t04 El Paso
s1t05 Friend of the Devil
s1t06 It's All Over Now
s1t07 China Cat Sunflower >
s1t08 I Know You Rider >
s1t09 Lost Sailor >
s1t10 Saint of Circumstance >
s1t11 Don't Ease Me In

s2t01 crowd & tuning
s2t02 Althea
s2t03 C.C. Rider
s2t04 Ship of Fools
s2t05 Estimated Prophet >
s2t06 Terrapin >
s2t07 Playin' in the Band >
s2t08 Drums >
s2t09 Space >
s2t10 Iko Iko >
s2t11 Morning Dew >
s2t12 Sugar Magnolia
s2t13 crowd & tuning
s2t14 Encore: Alabama Getaway

FOB AUD: 2x Nakamichi CM300/CP4 shotguns > Nakamichi 550 >
Maxell XLII 90's, mics on stand FOB, taped by Tim Friend & Joe Morrone.

Transfer: MAC > Nakamichi DR-2 > Edirol FA-66 > Wavelab >
CD-Wave > TLH > FLAC 2448 Tagged. Transfer by Andrew F.
11/2009

Same recording as ID-26458, upgraded transfer from MAC.

    length     expanded size    cdr  WAVE problems  fmt   ratio  filename
     2:17.680      39651884 B   cxx   --   ---xx   flac  0.6930  gd1980-09-02s1t01.flac
     7:42.893     133313324 B   cxx   --   ---xx   flac  0.7066  gd1980-09-02s1t02.flac
    13:39.027     235879724 B   cxx   --   ---xx   flac  0.6958  gd1980-09-02s1t03.flac
     4:24.013      76035884 B   cxx   --   ---xx   flac  0.6951  gd1980-09-02s1t04.flac
    10:49.313     187002290 B   cxx   --   ---xx   flac  0.6909  gd1980-09-02s1t05.flac
     8:42.000     150336044 B   cxx   --   ---xx   flac  0.7167  gd1980-09-02s1t06.flac
     6:07.547     105853484 B   cxx   --   ---xx   flac  0.7128  gd1980-09-02s1t07.flac
     6:15.787     108226604 B   cxx   --   ---xx   flac  0.7195  gd1980-09-02s1t08.flac
     6:35.947     114032684 B   cxx   --   ---xx   flac  0.6941  gd1980-09-02s1t09.flac
     6:16.227     108353324 B   cxx   --   ---xx   flac  0.7200  gd1980-09-02s1t10.flac
     3:28.115      59937128 B   cxx   --   ---xx   flac  0.7159  gd1980-09-02s1t11.flac
     1:22.120      23650604 B   cxx   --   ---xx   flac  0.6617  gd1980-09-02s2t01.flac
    10:35.387     182991404 B   cxx   --   ---xx   flac  0.6831  gd1980-09-02s2t02.flac
     8:15.520     142709804 B   cxx   --   ---xx   flac  0.6881  gd1980-09-02s2t03.flac
     8:36.220     148671272 B   cxx   --   ---xx   flac  0.6803  gd1980-09-02s2t04.flac
    11:50.680     204675884 B   cxx   --   ---xx   flac  0.7087  gd1980-09-02s2t05.flac
    13:05.160     226126124 B   cxx   --   ---xx   flac  0.7029  gd1980-09-02s2t06.flac
    11:08.640     192568364 B   cxx   --   ---xx   flac  0.6956  gd1980-09-02s2t07.flac
     9:14.970     159831416 B   cxx   --   ---xx   flac  0.6702  gd1980-09-02s2t08.flac
     8:22.920     144841004 B   cxx   --   ---xx   flac  0.6616  gd1980-09-02s2t09.flac
     7:39.800     132422444 B   cxx   --   ---xx   flac  0.7216  gd1980-09-02s2t10.flac
    10:55.720     188847404 B   cxx   --   ---xx   flac  0.7051  gd1980-09-02s2t11.flac
     9:28.187     163637804 B   cxx   --   ---xx   flac  0.7331  gd1980-09-02s2t12.flac
     0:31.545       9085064 B   cxx   --   ---xx   flac  0.6633  gd1980-09-02s2t13.flac
     5:28.920      94729022 B   cxx   --   ---xx   flac  0.7181  gd1980-09-02s2t14.flac
   192:54.336    3333409988 B                            0.6998  (25 files)

No errors occured.

Show Checksums
ffp
gd1980-09-02s1t01.flac:1548dde6666fddf63cb882f94445ed07
gd1980-09-02s1t02.flac:53934c40cb147c7beb4a804222b1c101
gd1980-09-02s1t03.flac:0d7c72c8e4b8771bcd486b0806260fc9
gd1980-09-02s1t04.flac:857963eb986d34d8528d3ef2d237f9fe
gd1980-09-02s1t05.flac:0c79a019e714346b36f5ff726863eff8
gd1980-09-02s1t06.flac:942655c0f31186ab287881c3c3c30836
gd1980-09-02s1t07.flac:cc996ffb6d40ba7f68843d1e8c0eedd8
gd1980-09-02s1t08.flac:795b073d59c6f0e31e053b6acc2cb360
gd1980-09-02s1t09.flac:39a9f31f63bfe3b03a0ba26c9210fd09
gd1980-09-02s1t10.flac:600bda24e53fba3450ef18fcbb2571fc
gd1980-09-02s1t11.flac:a2783820890a4aa5035c677e20b95a4b
gd1980-09-02s2t01.flac:38e5df9b5065d3409ac64103eb39b79f
gd1980-09-02s2t02.flac:f04047332a8ee6d672805da5f6eb8da5
gd1980-09-02s2t03.flac:47d4f6821522af6ccab5c1c8ca07b03a
gd1980-09-02s2t04.flac:48075e632cfe0abe608e0df18b9bd06b
gd1980-09-02s2t05.flac:7072b12f81d4b682a003f1cb0af79fd5
gd1980-09-02s2t06.flac:7be9eac28215ab0fc384e46cad7175f2
gd1980-09-02s2t07.flac:d51ba57facae22451201c9d0f2d539c8
gd1980-09-02s2t08.flac:70fc26474be6a56078d8ae551e244c1e
gd1980-09-02s2t09.flac:9f526d2f35e9e1c1ab44703590f40182
gd1980-09-02s2t10.flac:ef1a471abff1454175e79ad6ad4fb3b9
gd1980-09-02s2t11.flac:bd0f314c7745c5d23803253065ef0079
gd1980-09-02s2t12.flac:6b36530758613d0f92af333a0e1d3ecc
gd1980-09-02s2t13.flac:80428dd0671059f53ca52f9ea5ef3af9
gd1980-09-02s2t14.flac:efba5da31546e427fe07b3dfde0856b6
flac-md5
8d1edaa61c1ce1e9f85f48e6888927f8 *gd1980-09-02s1t01.flac
5e8d5a536a49bfd60f66327e6d1ff921 *gd1980-09-02s1t02.flac
3ec4671168fc9f7fb88a8b30eb32d80f *gd1980-09-02s1t03.flac
fa40050e2c37a622db393ce75fb49768 *gd1980-09-02s1t04.flac
d5707bc2a11020d577ad6eea27c30807 *gd1980-09-02s1t05.flac
7f1922169a9a1cac2039faa893ebd357 *gd1980-09-02s1t06.flac
e37d06e534aa4256332c533163a2d3c8 *gd1980-09-02s1t07.flac
b8dd8bb34425c32ec74513c4c9f3a2be *gd1980-09-02s1t08.flac
cdeb31e5091c48f8d25375e4f8d2c5da *gd1980-09-02s1t09.flac
a2b7b3b474d20b1b4075996896c2effa *gd1980-09-02s1t10.flac
756475931cc4aebff7ed5c77da8a6820 *gd1980-09-02s1t11.flac
ec09afaa654d38a15afea8412f68c779 *gd1980-09-02s2t01.flac
86c5e098b2e8af7b29695dd09c8fdd17 *gd1980-09-02s2t02.flac
b0c77da235c92bac37a1524c81a229d2 *gd1980-09-02s2t03.flac
692efd02cf04a4caa1b695f2d1abaa13 *gd1980-09-02s2t04.flac
e467940aa4618bd712828ea76994d7a2 *gd1980-09-02s2t05.flac
487a1f2fd4e424a8a4284f63aef05186 *gd1980-09-02s2t06.flac
0a115fd0f2550c21eeb38858e2bbd374 *gd1980-09-02s2t07.flac
a4af04ed097037a321d8004297bb3fdc *gd1980-09-02s2t08.flac
460f8eeb15aea08bb281a7bc2034a8ce *gd1980-09-02s2t09.flac
8b536822aa59e17fb0dfbfd8cdbf5ae4 *gd1980-09-02s2t10.flac
6f4d4fcc9e3e2a7e0cc9462493dd980f *gd1980-09-02s2t11.flac
92a575771bcb9a225a662f732126dd66 *gd1980-09-02s2t12.flac
b66915d62284d21b12f3c25137f36a22 *gd1980-09-02s2t13.flac
656efa96c003f01ba292e940008b9de9 *gd1980-09-02s2t14.flac

Comments
Add Comment
Other Sources (comments)
Audience Recording: MC? >... (1) AUD (FOB, unknown mics)>... (0) flac16; mixed... (7) flac16; Patched... (1) flac16; FOB AUD: 2x... (2) flac16; Matrix: 60%... (0) flac24; Set 2 AUD:... (0) flac16 Set 2 AUD: 2x... (0) flac16; Recorded By... (0)
Date User Comment
02/02/2013 nfagdtrfb text file correction: taped by Tim Friend & Joe Morrone, thanks guys!
02/03/2013 Wharfrat73 Updated info file.