Browse Collections Artists Sources   Search Dates

Add Show    List Management    Help


Grateful Dead 09/02/80
Community War Memorial Auditorium, Rochester, NY
Comments Add Comment    Source Collectors    Add to Collection    Add to Want List    History
Source # 102776 Other Sources
Entered by Gary Field
Checksums ffp , flac-md5
Disc Counts 2 / 3
Media Size
Date Circulated
Date Added
11/22/2009
11/22/2009
Source Summary flac16; FOB AUD: 2x Nakamichi CM300/CP4 shotguns > Nakamichi 550 > Maxell XLII 90's, mics on stand FOB, taped by Tim Friend & Joe Morrone. Transfer: MAC > Nakamichi DR-2 > Edirol FA-66 > Wavelab > CD-Wave > R8Brain > TLH > FLAC 1644 Tagged. Transfer by Andrew F. 11/2009 
  Archive
Source Information - Download Text | Download Zip
GRATEFUL DEAD
War Memorial Auditorium
Rochester NY
09-02-1980

16bit/44.1kHz file-set

s1t01 crowd & tuning
s1t02 Minglewood Blues
s1t03 Sugaree >
s1t04 El Paso
s1t05 Friend of the Devil
s1t06 It's All Over Now
s1t07 China Cat Sunflower >
s1t08 I Know You Rider >
s1t09 Lost Sailor >
s1t10 Saint of Circumstance >
s1t11 Don't Ease Me In

s2t01 crowd & tuning
s2t02 Althea
s2t03 C.C. Rider
s2t04 Ship of Fools
s2t05 Estimated Prophet >
s2t06 Terrapin >
s2t07 Playin' in the Band >
s2t08 Drums >
s2t09 Space >
s2t10 Iko Iko >
s2t11 Morning Dew >
s2t12 Sugar Magnolia
s2t13 crowd & tuning
s2t14 Encore: Alabama Getaway

FOB AUD: 2x Nakamichi CM300/CP4 shotguns > Nakamichi 550 >
Maxell XLII 90's, mics on stand FOB, taped by Tim Friend & Joe Morrone.

Transfer: MAC > Nakamichi DR-2 > Edirol FA-66 > Wavelab >
CD-Wave > R8Brain > TLH > FLAC 1644 Tagged. Transfer by
Andrew F. 11/2009

Same recording as ID-26458, upgraded transfer from MAC.
CDR: D1 s1t01 > s1t11, D2 s2t01 > s2t08, D3 s2t09 > s2t14.

    length     expanded size    cdr  WAVE problems  fmt   ratio  filename
     2:17.51       24286796 B   ---   --   ---xx   flac  0.5567  gd1980-09-02s1t01.flac
     7:42.67       81654428 B   ---   --   ---xx   flac  0.5765  gd1980-09-02s1t02.flac
    13:39.02      144476348 B   ---   --   ---xx   flac  0.5588  gd1980-09-02s1t03.flac
     4:24.01       46571996 B   ---   --   ---xx   flac  0.5579  gd1980-09-02s1t04.flac
    10:49.23      114537740 B   ---   --   ---xx   flac  0.5507  gd1980-09-02s1t05.flac
     8:42.00       92080844 B   ---   --   ---xx   flac  0.5931  gd1980-09-02s1t06.flac
     6:07.41       64835276 B   ---   --   ---xx   flac  0.5867  gd1980-09-02s1t07.flac
     6:15.59       66288812 B   ---   --   ---xx   flac  0.5974  gd1980-09-02s1t08.flac
     6:35.71       69845036 B   ---   --   ---xx   flac  0.5556  gd1980-09-02s1t09.flac
     6:16.17       66366428 B   ---   --   ---xx   flac  0.5980  gd1980-09-02s1t10.flac
     3:28.09       36712412 B   ---   --   ---xx   flac  0.5930  gd1980-09-02s1t11.flac
     1:22.09       14486012 B   ---   --   ---xx   flac  0.5071  gd1980-09-02s2t01.flac
    10:35.29      112082252 B   ---   --   ---xx   flac  0.5385  gd1980-09-02s2t02.flac
     8:15.39       87409772 B   ---   --   ---xx   flac  0.5465  gd1980-09-02s2t03.flac
     8:36.16       91060076 B   ---   --   ---xx   flac  0.5335  gd1980-09-02s2t04.flac
    11:50.51      125363996 B   ---   --   ---xx   flac  0.5795  gd1980-09-02s2t05.flac
    13:05.12      138502268 B   ---   --   ---xx   flac  0.5699  gd1980-09-02s2t06.flac
    11:08.48      117948140 B   ---   --   ---xx   flac  0.5580  gd1980-09-02s2t07.flac
     9:14.73       97897340 B   ---   --   ---xx   flac  0.5157  gd1980-09-02s2t08.flac
     8:22.69       88715132 B   ---   --   ---xx   flac  0.5008  gd1980-09-02s2t09.flac
     7:39.60       81108764 B   ---   --   ---xx   flac  0.6010  gd1980-09-02s2t10.flac
    10:55.54      115669052 B   ---   --   ---xx   flac  0.5730  gd1980-09-02s2t11.flac
     9:28.14      100228172 B   ---   --   ---xx   flac  0.6194  gd1980-09-02s2t12.flac
     0:31.41        5564876 B   ---   --   ---xx   flac  0.5055  gd1980-09-02s2t13.flac
     5:28.70       58023884 B   ---   --   ---xx   flac  0.5969  gd1980-09-02s2t14.flac
   192:54.26     2041715852 B                            0.5651  (25 files)

No errors occured.

Show Checksums
ffp
gd1980-09-02s1t01.flac:699db76d5306a87a8dd22eb0a5f51fca
gd1980-09-02s1t02.flac:7304a077a51b62309fc2cd45f4e6ee47
gd1980-09-02s1t03.flac:759b09e85b8016746ed93e592e6445dc
gd1980-09-02s1t04.flac:56ba93d01d9a7752d492649d7f57f8c4
gd1980-09-02s1t05.flac:ad1b85890653549cd47d58f6524f0272
gd1980-09-02s1t06.flac:7c0b6afe4eb7ba0112633c32a19d7556
gd1980-09-02s1t07.flac:3087db70a7832e4df7d12d7b0e4a1e48
gd1980-09-02s1t08.flac:5ffb82a11e35c92fb6b077db3b9fea25
gd1980-09-02s1t09.flac:c14c189217fe1d0a413f716c0fb81acd
gd1980-09-02s1t10.flac:154681b50ee3a89da37caadf9a6cd08d
gd1980-09-02s1t11.flac:3ae1d96f7481b80d92080b1ad28741c3
gd1980-09-02s2t01.flac:24fc7597791eb036c40d14c3754353e5
gd1980-09-02s2t02.flac:0f7d159e68f15330c7da97fa96651d43
gd1980-09-02s2t03.flac:fdaec846a62ea3a7b60fbf9828bbc286
gd1980-09-02s2t04.flac:cc72239b65eb667c7187dd405918cdc3
gd1980-09-02s2t05.flac:6bd39539853abf13e665cb18c8762cba
gd1980-09-02s2t06.flac:34fe08d6fad5ce812bc122881847fb69
gd1980-09-02s2t07.flac:9480de1e52c4c8f920ec58d41e5cdbbf
gd1980-09-02s2t08.flac:96b65644f12b5b79e3960b2d3559e49e
gd1980-09-02s2t09.flac:3246ad5fa1ef1c2a16f89dbe45595f55
gd1980-09-02s2t10.flac:839458addbc7e7519c19cca742c62d15
gd1980-09-02s2t11.flac:2b16e393b35a45b60bf995524e55ba11
gd1980-09-02s2t12.flac:b9ea4a507a790a2e0451fbac738916d8
gd1980-09-02s2t13.flac:5075f1ccbbf8fdf83ba9e2efe836ace8
gd1980-09-02s2t14.flac:14a351e6e23febf897f04ed1cd6869ae
flac-md5
96059ac8a219b3b37ccbeeff854dde40 *gd1980-09-02s1t01.flac
532822e28caf9c351fc11d21e96cd639 *gd1980-09-02s1t02.flac
30578df2e4aedc740c12a256665af102 *gd1980-09-02s1t03.flac
76e737b6cd9af3eceefebf4cde2f4480 *gd1980-09-02s1t04.flac
6829e22fd24224e97388a2a42399d6ec *gd1980-09-02s1t05.flac
777c475b0d28a80781ff3cff4ad99647 *gd1980-09-02s1t06.flac
62c2f3bddb3cbbc8457082f7e5a840eb *gd1980-09-02s1t07.flac
538bcfa9c126ba4914864f06032400d7 *gd1980-09-02s1t08.flac
080e9632b988560a356a150b18246c19 *gd1980-09-02s1t09.flac
c6e118041ac1dc8d603f6b2bdb9091d3 *gd1980-09-02s1t10.flac
53d50e64eeca33a559e4c23eaaebb01a *gd1980-09-02s1t11.flac
b4e424800a31a446a551f84d407a648e *gd1980-09-02s2t01.flac
53326348ed7b17bc71818875c3e0f397 *gd1980-09-02s2t02.flac
297d12a86347f0aba2f26c229f9d0011 *gd1980-09-02s2t03.flac
b315c64332c76250b9d73723b79bb9a5 *gd1980-09-02s2t04.flac
070889ae6ddbc399947c5745e0086817 *gd1980-09-02s2t05.flac
9a9353260fe150223d4a4cb83053e6b6 *gd1980-09-02s2t06.flac
3b9e4598112d83ee7a487f0ab0c5b59e *gd1980-09-02s2t07.flac
3b55bb4d19c889538ad9af9df1836e62 *gd1980-09-02s2t08.flac
8365859c8b927f3f344ddd5df591ef03 *gd1980-09-02s2t09.flac
b3cc711085daa693df25f660c252c5b7 *gd1980-09-02s2t10.flac
ff197a3d8b0d7e17839d5ae9d0fb420d *gd1980-09-02s2t11.flac
0b1a607432c5983579a3de2da13356f9 *gd1980-09-02s2t12.flac
858e0d21048d5f0c5f97456359b44102 *gd1980-09-02s2t13.flac
b175cee47b238333d27f0331d30a58bd *gd1980-09-02s2t14.flac

Comments
Add Comment
Other Sources (comments)
Audience Recording: MC? >... (1) AUD (FOB, unknown mics)>... (0) flac16; mixed... (7) flac16; Patched... (1) flac24; FOB AUD: 2x... (2) flac16; Matrix: 60%... (0) flac24; Set 2 AUD:... (0) flac16 Set 2 AUD: 2x... (0) flac16; Recorded By... (0)
Date User Comment
02/02/2013 nfagdtrfb text file correction: taped by Tim Friend & Joe Morrone, thanks guys!
02/03/2013 Wharfrat73 Updated info file.