Browse Collections Artists Sources   Search Dates

Add Show    List Management    Help


Grateful Dead 04/13/83
Patrick Gymnasium, U of Vermont, Burlington, VT
Comments Add Comment    Source Collectors    Add to Collection    Add to Want List    History
Source # 102860 Other Sources
Entered by Matt Vernon
Checksums ffp , flac-md5
Disc Counts 1 / 2
Media Size
Date Circulated
Date Added
11/26/2009
11/26/2009
Source Summary flac 16 Source: 3 Microphone Setup>unknown Deck>cassette Master->my Cassette  
  Archive
Source Information - Download Text | Download Zip
Grateful Dead
April 13, 1983
Patrick Gymnasium at the University of Vermont
Burlington, VT

Recording Info:
3 microphone setup>unknown deck>Cassette Master->My Cassette

Transfer Info:
My Cassette>Nak DR-1>Sony R300>44.1>ZA2>SoundForge4.5>WAV>FlacFrontEnd>FLAC

(2 Discs Audio / 1 Disc FLAC)

All Transfers and Mastering By Frank Venezia
[email protected]
November 27, 2008

Notes:
-- Rhythm Devils is severely cut
-- Fire on the Mountain is not cut
-- Space is not cut
-- Morning Dew is not cut
-- in spring 1983, i went to my friend Tim Paisley's house in Garden City, NY and copied as many of his cousin's master cassettes as i could; he told me they used a three-mic setup to record this


Set 2 only:
d1t01 - Scarlet Begonias 14:11
d1t02 - Fire on the Mountain 11:35
d1t03 - Estimated Prophet 11:50
d1t04 - Eyes of the World 8:03
d1t05 - Baby, You Know How I'm Feelin' 3:53

d2t01 - Space 10:31
d2t02 - Morning Dew 11:21
d2t03 - Throwin' Stones 8:51
d2t04 - Good Lovin' 8:51

Encore:
d2t05 - Touch of Grey 6:18


SHNTOOL OUTPUT:
    length     expanded size    cdr  WAVE problems  fmt   ratio  filename
    14:11.53      150241100 B   ---   --   -----    wav  1.0000  gd83-04-13.2nd.aud-venezia.d1t01.wav
    11:35.36      122682716 B   ---   --   -----    wav  1.0000  gd83-04-13.2nd.aud-venezia.d1t02.wav
    11:50.61      125387516 B   ---   --   -----    wav  1.0000  gd83-04-13.2nd.aud-venezia.d1t03.wav
     8:03.47       85311788 B   ---   --   -----    wav  1.0000  gd83-04-13.2nd.aud-venezia.d1t04.wav
     3:53.65       41254124 B   ---   --   -----    wav  1.0000  gd83-04-13.2nd.aud-venezia.d1t05.wav
    10:31.64      111458972 B   ---   --   -----    wav  1.0000  gd83-04-13.2nd.aud-venezia.d2t01.wav
    11:21.69      120290732 B   ---   --   -----    wav  1.0000  gd83-04-13.2nd.aud-venezia.d2t02.wav
     8:51.42       93767228 B   ---   --   -----    wav  1.0000  gd83-04-13.2nd.aud-venezia.d2t03.wav
     8:51.55       93797804 B   ---   --   -----    wav  1.0000  gd83-04-13.2nd.aud-venezia.d2t04.wav
     6:18.08       66698060 B   ---   --   -----    wav  1.0000  gd83-04-13.2nd.aud-venezia.d2t05.wav
    95:30.50     1010890040 B                            1.0000  (10 files)
Show Checksums
ffp
gd83-04-13.2nd.aud-venezia.d1t01.flac:d498c7c65cef2c12104126653699bc89
gd83-04-13.2nd.aud-venezia.d1t02.flac:9d9c26245cc6161ce0f4d841d7535f0f
gd83-04-13.2nd.aud-venezia.d1t03.flac:56c275356a9c79af49198bd1fbd60edc
gd83-04-13.2nd.aud-venezia.d1t04.flac:816343e3ab89b18f081b9db4dbf82484
gd83-04-13.2nd.aud-venezia.d1t05.flac:58dbc6ded390fabde294bbae5ea401f4
gd83-04-13.2nd.aud-venezia.d2t01.flac:5acd2845289b0883e370d5f13995e007
gd83-04-13.2nd.aud-venezia.d2t02.flac:0b57de99fd04b18e91556b53286babed
gd83-04-13.2nd.aud-venezia.d2t03.flac:1a1d370655fd5ac116f54a89a7ac21f0
gd83-04-13.2nd.aud-venezia.d2t04.flac:6536653d202bd14440fc9d0c770bb6b9
gd83-04-13.2nd.aud-venezia.d2t05.flac:2c63350db359a0889e9bece336a2d078
flac-md5
5e018bfb8e5b0b90e88098ba2949e3a2 *gd83-04-13.2nd.aud-venezia.d1t01.flac
c32b7b61a3279e0c4c75645d914a0ffc *gd83-04-13.2nd.aud-venezia.d1t02.flac
3ff5ba6be6fbb954d42990b181a3b39f *gd83-04-13.2nd.aud-venezia.d1t03.flac
747c0eee569e4ff17323ee3e614e9a03 *gd83-04-13.2nd.aud-venezia.d1t04.flac
e46d38e397ef00fee9b8d2ac4862a8d2 *gd83-04-13.2nd.aud-venezia.d1t05.flac
a80bbbb1b54a89c80a3f7dfd12bff6f3 *gd83-04-13.2nd.aud-venezia.d2t01.flac
b4bfd28b9f3e7082169e8da927b8a364 *gd83-04-13.2nd.aud-venezia.d2t02.flac
398e8ffcb1fc73c4c7196aa178596d1c *gd83-04-13.2nd.aud-venezia.d2t03.flac
e4b45bfa14cc2320306603237a6e6ada *gd83-04-13.2nd.aud-venezia.d2t04.flac
dbb23e313134549d99931d4596404ce6 *gd83-04-13.2nd.aud-venezia.d2t05.flac

Comments
Add Comment
Other Sources (comments)
MSC -> Reel (3 3/4 ips) ->... (12) Source: MAC(FOB Sennheiser... (0) SDB>>CM>>C>>DAT>>CDR via... (2) flac16; AUD Source:... (4) flac16; Matrix by... (0) flac24; AUD: 2x... (1) flac16; AUD: 2x... (1) flac24; Updated... (1) flac16/48kHz; Set 2... (0) flac16; aud cassette... (0) flac24; aud cassette... (0) flac16/44.1... (0) flac24/48 ... (0)
Date User Comment
06/12/2011 nfagdtrfb This recording matches the Horvath source ID-21921