Browse Collections Artists Sources   Search Dates

Add Show    List Management    Help


Grateful Dead 07/29/88
Laguna Seca Recreation Area, Monterey, CA
Comments Add Comment    Source Collectors    Add to Collection    Add to Want List    History
Source # 102903 Other Sources
Entered by Gary Field
Checksums ffp , st5 , flac-md5
Disc Counts 2 / 2
Media Size
Date Circulated
Date Added
11/29/2009
11/28/2009
Source Summary flac16; TAPER: Greg Holtz SOURCE: Nakamichi CM-100 mics with CP-1 caps (Hand Held FOB) Sony WM-D6 TRANSFER: By (JAZ) Master Cassettes (Maxell MX90) Tascam 112MKII -> Korg MR-1, 1bit 2.8MHz -> USB -> Korg Audio Gate Software 24bit 96KHz -> Wave Lab 6.0 w/UAD -> R8brain for 16bit 44.1KHz sample rate conversion -> Traders Little Helper flac8 
  Archive
Source Information - Download Text | Download Zip
Grateful Dead
Laguna Seca Recreation Area
Monterey, CA
July 29th 1988

TAPER: Greg Holtz

SOURCE: Nakamichi CM-100 mics with CP-1 caps (Hand Held FOB) Sony WM-D6

TRANSFER: By (JAZ) Master Cassettes (Maxell MX90) Tascam 112MKII -> Korg MR-1, 1bit 2.8MHz -> USB -> Korg Audio Gate Software 24bit 96KHz -> Wave Lab 6.0 w/UAD -> R8brain for 16bit 44.1KHz sample rate conversion -> Traders Little Helper flac8

Set I
1.Iko Iko
2.Walkin' Blues
3.Candyman
4.Queen Jane Approximately
5.Althea
6.Blow Away
7.Cassidy
8.Deal

Set II
9.China Cat Sunflower->
10.Crazy Fingers->
11.I Know You Rider
12.Playin' In The Band->
13.Drums->  
14.The Wheel->
15.Gimme Some Lovin'->
16.Believe It Or Not->
17.Sugar Magnolia

Encore:
18.Black Muddy River

shntool 3.0.4
Copyright (C) 2000-2007 Jason Jordan

    length     expanded size    cdr  WAVE problems  fmt   ratio  filename
     8:13.43       87066380 B   ---   --   ---xx   flac  0.5955  GD1988-07-29trk01.flac
     6:36.33       69932060 B   ---   --   ---xx   flac  0.5876  GD1988-07-29trk02.flac
     7:32.05       79744604 B   ---   --   ---xx   flac  0.5836  GD1988-07-29trk03.flac
     7:28.35       79109564 B   ---   --   ---xx   flac  0.6056  GD1988-07-29trk04.flac
     8:41.57       92038508 B   ---   --   ---xx   flac  0.6024  GD1988-07-29trk05.flac
     7:05.50       75087644 B   ---   --   ---xx   flac  0.5806  GD1988-07-29trk06.flac
     7:12.17       76244828 B   ---   --   ---xx   flac  0.5869  GD1988-07-29trk07.flac
     8:08.68       86243180 B   ---   --   ---xx   flac  0.6183  GD1988-07-29trk08.flac
     8:40.56       91859756 B   ---   --   ---xx   flac  0.6024  GD1988-07-29trk09.flac
     8:07.26       85967996 B   ---   --   ---xx   flac  0.6118  GD1988-07-29trk10.flac
     4:58.49       52682492 B   ---   --   ---xx   flac  0.6258  GD1988-07-29trk11.flac
    12:31.09      132497612 B   ---   --   ---xx   flac  0.6206  GD1988-07-29trk12.flac
    19:36.44      207549932 B   ---   --   ---xx   flac  0.5720  GD1988-07-29trk13.flac
     5:00.16       52957676 B   ---   --   ---xx   flac  0.5809  GD1988-07-29trk14.flac
     4:46.55       50579804 B   ---   --   ---xx   flac  0.6022  GD1988-07-29trk15.flac
     6:50.24       72380492 B   ---   --   ---xx   flac  0.5738  GD1988-07-29trk16.flac
     9:20.01       98786396 B   ---   --   ---xx   flac  0.6160  GD1988-07-29trk17.flac
     6:08.27       64978748 B   ---   --   ---xx   flac  0.5976  GD1988-07-29trk18.flac
   146:59.15     1555707672 B                            0.5970  (18 files)
Show Checksums
ffp
GD1988-07-29trk01.flac:3ed1946c9db94b943af8c85236230a33
GD1988-07-29trk02.flac:95d3b50834a4b04d04067e2729421091
GD1988-07-29trk03.flac:e093f967ff94a73e4c09e61732002589
GD1988-07-29trk04.flac:df3985257d14f2fb0aaac49b38e88e91
GD1988-07-29trk05.flac:d429317195bcc2ec38c245c31b48d930
GD1988-07-29trk06.flac:44c70b8ff4fee4abbbc98768e256afd8
GD1988-07-29trk07.flac:17d24fc878d7d4cd4bb8763e7e1db4ac
GD1988-07-29trk08.flac:8dbec8a9cc7eb08b01a3b2d90387d4af
GD1988-07-29trk09.flac:c765a58073e006755c73b98175aed623
GD1988-07-29trk10.flac:d2427f9f6f021c504c86f84aeac3e475
GD1988-07-29trk11.flac:8ad61d3d0739eb609d515e66cb7dc0d9
GD1988-07-29trk12.flac:4d559d436fce4f64b7e5147d79de8cf4
GD1988-07-29trk13.flac:033746970ca5b07fe6e4bb5217fb4074
GD1988-07-29trk14.flac:413861977cd01f2d5135a1f987915b6b
GD1988-07-29trk15.flac:1043efcf47de1a640a8d42af2b2f14e1
GD1988-07-29trk16.flac:a54c4c07b12218bf9f89d7e7352a29c5
GD1988-07-29trk17.flac:4c18daf27a18804ac630260e96b5f4d9
GD1988-07-29trk18.flac:92b76ff8235a936405e3c6ccd966d903
st5
3ed1946c9db94b943af8c85236230a33 [shntool] GD1988-07-29trk01.flac
95d3b50834a4b04d04067e2729421091 [shntool] GD1988-07-29trk02.flac
e093f967ff94a73e4c09e61732002589 [shntool] GD1988-07-29trk03.flac
df3985257d14f2fb0aaac49b38e88e91 [shntool] GD1988-07-29trk04.flac
d429317195bcc2ec38c245c31b48d930 [shntool] GD1988-07-29trk05.flac
44c70b8ff4fee4abbbc98768e256afd8 [shntool] GD1988-07-29trk06.flac
17d24fc878d7d4cd4bb8763e7e1db4ac [shntool] GD1988-07-29trk07.flac
8dbec8a9cc7eb08b01a3b2d90387d4af [shntool] GD1988-07-29trk08.flac
c765a58073e006755c73b98175aed623 [shntool] GD1988-07-29trk09.flac
d2427f9f6f021c504c86f84aeac3e475 [shntool] GD1988-07-29trk10.flac
8ad61d3d0739eb609d515e66cb7dc0d9 [shntool] GD1988-07-29trk11.flac
4d559d436fce4f64b7e5147d79de8cf4 [shntool] GD1988-07-29trk12.flac
033746970ca5b07fe6e4bb5217fb4074 [shntool] GD1988-07-29trk13.flac
413861977cd01f2d5135a1f987915b6b [shntool] GD1988-07-29trk14.flac
1043efcf47de1a640a8d42af2b2f14e1 [shntool] GD1988-07-29trk15.flac
a54c4c07b12218bf9f89d7e7352a29c5 [shntool] GD1988-07-29trk16.flac
4c18daf27a18804ac630260e96b5f4d9 [shntool] GD1988-07-29trk17.flac
92b76ff8235a936405e3c6ccd966d903 [shntool] GD1988-07-29trk18.flac
flac-md5
c421195c07f252b1b1092ade634c4fa9 *GD1988-07-29trk01.flac
72dfe07d90136d2f2cd87c87c2a0be46 *GD1988-07-29trk02.flac
c37e54c8f4638d62e688da1ba7562540 *GD1988-07-29trk03.flac
2de9082c2216bdf31093a48a9ea38a4b *GD1988-07-29trk04.flac
4036f26444e38a2197c09540cfe976ed *GD1988-07-29trk05.flac
356b984871d38b8a356c6500a7cb0141 *GD1988-07-29trk06.flac
2cfb38dba05a05ea692a5f13deb49cf5 *GD1988-07-29trk07.flac
0276bb9a31698a602dd74b208c4eca94 *GD1988-07-29trk08.flac
9115d651140c2597deaacf971e4f3000 *GD1988-07-29trk09.flac
d25423bb98c9ba0538e82e7042d02528 *GD1988-07-29trk10.flac
56beadc8d6464d6ef26fd350dc7f96fd *GD1988-07-29trk11.flac
ef957ab0932b773c98a53313edc28b20 *GD1988-07-29trk12.flac
3632a104790eb7ef2011234c1e45bfdf *GD1988-07-29trk13.flac
30ab8c8696cef49607cc11f044926472 *GD1988-07-29trk14.flac
47f4760257ba15f854af73790392e35b *GD1988-07-29trk15.flac
2edc15db5d2d86ac75113e6889f2cb11 *GD1988-07-29trk16.flac
0e72dcb2249a0d7e17296f0621925288 *GD1988-07-29trk17.flac
c198b41fbe297b785913fdf9d81adbb4 *GD1988-07-29trk18.flac

Comments
Add Comment
Other Sources (comments)
Soundboard (was originally... (5) flac16; Source:... (1) flac16; Hat Mounted... (0) flac16; Second Set... (3) flac16; Recording... (2)
Date User Comment