Browse Collections Artists Sources   Search Dates

Add Show    List Management    Help


Grateful Dead 07/07/87
Roanoke Civic Center, Roanoke, VA
Comments Add Comment    Source Collectors    Add to Collection    Add to Want List    History
Source # 102909 Other Sources
Entered by dr.unclear
Checksums flac-md5 , ffp
Disc Counts 2 / 2
Media Size
Date Circulated
Date Added
11/30/2009
11/29/2009
Source Summary flac16; Recorded by Dave Cohen 4th row behind Board, DFC (Sec.LT4, Row D, Seat 2) 2 Nakamichi CM100s/CP4>Sony TCD5M w/ Dolby Maxell MX90 cassettes Master Cassettes were played back with Azimuth adjustment and Dolby decoded on a Nakamichi CD1 into a Korg MR1000 at DSF 1 bit 5.6MHz. Subsequent conversion to 24/96 AIFF done via Korg Audiogate software. Redbook CDR standard 16/44.1 files were created using Bias Peak, Izotope Ozone's MBIT+ (for all dithering), and Weiss Saracon SRC (all sample rate conversions). FLAC'd using Audiofile Engineering Sample Manager 
  Archive
Source Information - Download Text | Download Zip
Grateful Dead
Roanoke Civic Center
Roanoke, Va.
7/7/87


Recorded by Dave Cohen
4th row behind Board, DFC (Sec.LT4, Row D, Seat 2)

2 Nakamichi CM100s/CP4>Sony TCD5M w/ Dolby
Maxell MX90 cassettes
The Master Cassettes were played back with Azimuth adjustment and Dolby decoded
on a Nakamichi CD1 into a Korg MR1000 at DSF 1 bit 5.6MHz. Subsequent conversion
to 24/96 AIFF done via Korg Audiogate software. Redbook CDR standard 16/44.1 files
were created using Bias Peak, Izotope Ozone's MBIT+ (for all dithering), and
Weiss Saracon SRC (all sample rate conversions).  FLAC'd using Audiofile Engineering Sample Manager

Transferred by Dave Cohen November 2009
Flacs and tracks named, sbe's fixed, and uploaded to Workingman's Tracker November 2009


Disc 1
d1t01 Feniculi Fenicula
d1t02 Mississippi Half-Step
d1t03 Walkin Blues
d1t04 Candyman
d1t05 My Brother Esau
d1t06 When Push Comes to Shove
d1t07 Me And My Uncle ->
d1t08 Mexicali Blues
d1t09 Bird Song
d1t10 Promised Land

Disc 2
d2t01 Tuning
d2t02 West LA Fadeaway
d2t03 Cumberland Blues
d2t04 Looks Like Rain
d2t05 Eyes of the World
d2t06 Drums ->
d2t07 Space ->

Disc 3
d3t01 Space ->
d3t02 The Wheel ->
d3t03 Gimme Some Lovin' ->
d3t04 Morning Dew ->
d3t05 Turn on Your Lovelight
encore
d3t06 U.S. Blues



    length     expanded size    cdr  WAVE problems  fmt   ratio  filename
     1:41.24       17872892 B   ---   --   ---xx   flac  0.5151  gd87-07-07d1t01.flac
     6:48.38       72060620 B   ---   --   ---xx   flac  0.6091  gd87-07-07d1t02.flac
     7:36.51       80558396 B   ---   --   ---xx   flac  0.5844  gd87-07-07d1t03.flac
     8:02.11       85050716 B   ---   --   ---xx   flac  0.5723  gd87-07-07d1t04.flac
     5:10.13       54714620 B   ---   --   ---xx   flac  0.6049  gd87-07-07d1t05.flac
     7:00.19       74132732 B   ---   --   ---xx   flac  0.5814  gd87-07-07d1t06.flac
     2:39.02       28052348 B   ---   --   ---xx   flac  0.6258  gd87-07-07d1t07.flac
     5:10.21       54733436 B   ---   --   ---xx   flac  0.5972  gd87-07-07d1t08.flac
     9:29.62      100517468 B   ---   --   ---xx   flac  0.6010  gd87-07-07d1t09.flac
     4:19.24       45744092 B   ---   --   ---xx   flac  0.6309  gd87-07-07d1t10.flac
     0:51.24        9052892 B   ---   --   ---xx   flac  0.4798  gd87-07-07d2t01.flac
     7:33.26       79970396 B   ---   --   ---xx   flac  0.6009  gd87-07-07d2t02.flac
     4:57.27       52454348 B   ---   --   ---xx   flac  0.6138  gd87-07-07d2t03.flac
     8:31.24       90196892 B   ---   --   ---xx   flac  0.5977  gd87-07-07d2t04.flac
     8:21.52       88498748 B   ---   --   ---xx   flac  0.6162  gd87-07-07d2t05.flac
     8:30.14       89996972 B   ---   --   ---xx   flac  0.5515  gd87-07-07d2t06.flac
     6:57.00       73558844 B   ---   --   ---xx   flac  0.5075  gd87-07-07d2t07.flac
     2:25.15       25613324 B   ---   --   ---xx   flac  0.4949  gd87-07-07d3t01.flac
     4:32.22       48032588 B   ---   --   ---xx   flac  0.6032  gd87-07-07d3t02.flac
     5:20.39       56539772 B   ---   --   ---xx   flac  0.5990  gd87-07-07d3t03.flac
    11:00.44      116527532 B   ---   --   ---xx   flac  0.5414  gd87-07-07d3t04.flac
     6:21.04       67217852 B   ---   --   ---xx   flac  0.5793  gd87-07-07d3t05.flac
     5:31.47       58498988 B   ---   --   ---xx   flac  0.6405  gd87-07-07d3t06.flac
   138:51.03     1469596468 B                            0.5849  (23 files)
                        0.5849  (23 files)
Show Checksums
flac-md5
ee28b7757f3de4e9861a6f0392fad6e0 *gd87-07-07d1t01.flac
d8760206da922238a3fcb7d8ad8061d1 *gd87-07-07d1t02.flac
a632db9abdf6182c9b3a87b24c91e0cd *gd87-07-07d1t03.flac
0a8d5a26570e6e70db381d4f780d5e97 *gd87-07-07d1t04.flac
b5e7d4650e93aec2a6723c123bcc61d3 *gd87-07-07d1t05.flac
5d03e1c9154b2943187b120c6cf16056 *gd87-07-07d1t06.flac
e2d47809bb25549e331ccf5bf0df3d27 *gd87-07-07d1t07.flac
56b450e51510afc338d887089b297c40 *gd87-07-07d1t08.flac
789aec52772f6441f1d484caa7d98f5e *gd87-07-07d1t09.flac
1d413322158ab2aa541fff92c5ff8ca7 *gd87-07-07d1t10.flac
c1824e3b681493f9509adb3661052afe *gd87-07-07d2t01.flac
e13ae74e4b6d46a4fc832fb2822feb14 *gd87-07-07d2t02.flac
36bbb00bc3d2e7e98f065e06a59190ac *gd87-07-07d2t03.flac
43fc6491c8d243b020bd560623fcaaa2 *gd87-07-07d2t04.flac
d34d6ae8203b27607c0fdb806052b84d *gd87-07-07d2t05.flac
bd1ac9d0c0280633d81887ad9eab1408 *gd87-07-07d2t06.flac
a8249a99c3bd746934151003b0fd9cb3 *gd87-07-07d2t07.flac
9e3beabf72979a6b9518fe52f1af5b95 *gd87-07-07d3t01.flac
10366aef6d40650d2bb0fc55a066d00e *gd87-07-07d3t02.flac
a1e4ef77a35c116727e10601cb5d9e5e *gd87-07-07d3t03.flac
eb7fdb2d863b4b53159cd3794e51c306 *gd87-07-07d3t04.flac
36bb571633c41baefec394965450b47d *gd87-07-07d3t05.flac
ac0f3ec2bdd996c834c3a9114e313f04 *gd87-07-07d3t06.flac
ffp
gd87-07-07d1t01.flac:3b51eae933ef1e096eb44b2159fc58ea
gd87-07-07d1t02.flac:72295af877af642ff0b6a00d866d6b9c
gd87-07-07d1t03.flac:1834ba5c2a14bd5180c209e0283a1b1c
gd87-07-07d1t04.flac:ef0c3a5c59ffeb10abf8368e45a72d79
gd87-07-07d1t05.flac:5ee9e34ce2448c8397eba694864b8718
gd87-07-07d1t06.flac:8661ac95e2d4bf5552a5e4d952be40be
gd87-07-07d1t07.flac:098df6c471a809a1bf4838127a7dceca
gd87-07-07d1t08.flac:a9ac87def97103961d74b39a37b899a8
gd87-07-07d1t09.flac:a3e17649a43e530ec55c2c9b5b83f6e5
gd87-07-07d1t10.flac:4ae35dfeb857fd0e96fb00940ef00ff7
gd87-07-07d2t01.flac:04e530a644afcbfe89f817f21b1fc05b
gd87-07-07d2t02.flac:52c2bfb083cd71a9b5a03d409011bc87
gd87-07-07d2t03.flac:aa857569a866f74a5194b2eece5a1a87
gd87-07-07d2t04.flac:8a86a348ef51a1cfc30d928114ee3db2
gd87-07-07d2t05.flac:24c7481dc14bb70822760b899000f36f
gd87-07-07d2t06.flac:30a63efa34afde08e87f5c943f701526
gd87-07-07d2t07.flac:4c17215c518f74b0882c9ebc3192b328
gd87-07-07d3t01.flac:c6b4e366d2e6ca46c49bfe690ebe405d
gd87-07-07d3t02.flac:76813429baab9ca50961b19237db19a1
gd87-07-07d3t03.flac:609074ec165ee3f268a00c3913360daf
gd87-07-07d3t04.flac:a18d33af2c79cd9a3302412bc5179f84
gd87-07-07d3t05.flac:528943746980c645d826a6de689b1987
gd87-07-07d3t06.flac:94adc5990d28e674955e62f945b817a1

Comments
Add Comment
Other Sources (comments)
Schoeps > PCM > DAT > CD >... (2) AUD> Beyer Dynamic M88's>... (0) flac16; Source:... (1) flac16; Source:... (0) flac16; Recording:... (0)
Date User Comment
11/30/2009 Dr.Unclear Corrected track list.