Browse Collections Artists Sources   Search Dates

Add Show    List Management    Help


Greensky Bluegrass 06/06/09
Bell's Brewery, Kalamazoo, MI
Comments Add Comment    Source Collectors    Add to Collection    Add to Want List    History
Source # 102976 Other Sources
Entered by
Checksums ffp
Disc Counts 0 / 0
Media Size
Date Circulated
Date Added
06/07/09
11/30/2009
Source Summary Source: Schoeps CCM4V'S(din)>Lunatec V2>Benchmark AD2K>Sound Devices 722 (24/48)
Location: FOB/DFC/KFC/ZFC/AARP 18' From Stage, 7' High
DSP: Sound Devices 722>Sound Forge 9.0>CD Wave>flac(16)
Recorded By: Z-Man 
Source Information - Download Text | Download Zip
Greensky Bluegrass
Bell's Brewery
Kalamazoo, Michigan
6/6/2009

Source: Schoeps CCM4V'S(din)>Lunatec V2>Benchmark AD2K>
Sound Devices 722 (24/48)
Location: FOB/DFC/KFC/ZFC/AARP 18' From Stage, 7' High
DSP: Sound Devices 722>Sound Forge 9.0>CD Wave>flac(16)
Recorded By: Z-Man
Seeded By: Z-Man
  
Disc I 1st Set

01 Introduction By Larry Bell
02 Grow Bananas
03 Airmal Special
04 Through The Trees
05 Stop That Train I'm Leavin' >
06 You Can't Fool The Youth
07 Tuning
08 *Old BArns
09 *9 Days
10 Depot Bay
11 Salty Dog
12 Middle Mountain Towns
13 Out And Under
14 I'm Still Here
15 All 4

Disc II 2nd Set

01 Tuning
02 Just To Lie
03 Freeborn Man >
04 Broken Highway >
05 When Doves Cry
06 Into The Rafters
07 Doin' My Time >
08 Dry County >
09 Dancin' In The Dark >
10 Doin' My Time
11 Banter
12 #The Gospel Plow >
13 #Sisters And Brothers


Disc III Encore

01 Banter - Thanks
02 #Jam >
03 #Cassidy >
04 #Cryptical Envelopment >
05 #The Other One >
06 #Cassidy

* With Erin Zindle Of The Ragbirds On Fiddle
# With Pete Kartsounes Of The wayward Sons On Guitar and Vocals

Flac fingerprint

gsbg2009-06-06d01t01.flac:20a24700703c21927a8f037a8d8dc5ca
gsbg2009-06-06d01t02.flac:794904e3bda30388aad77ec7ada96a28
gsbg2009-06-06d01t03.flac:0bc88d5855efce8d1bc8d1810706a190
gsbg2009-06-06d01t04.flac:022097708ca2ea3d0265c4e80889f5d5
gsbg2009-06-06d01t05.flac:6401aa4814bb9c0a7c789ff2cffdf5df
gsbg2009-06-06d01t06.flac:4afb22a8dbbf506cc5816e752b3af03a
gsbg2009-06-06d01t07.flac:335499dbd7ecb2071626824d3308739b
gsbg2009-06-06d01t08.flac:a5c602ef00c928038c4f2c7f512cbd04
gsbg2009-06-06d01t09.flac:5c21df09f3c911cede7226fefb1c2e57
gsbg2009-06-06d01t10.flac:e1e318d71ae5dfa8fa5927ae935c5a52
gsbg2009-06-06d01t11.flac:54df07527dfc3e168817fd866ce1b3ff
gsbg2009-06-06d01t12.flac:fab62d1bfdbae3415ac7409e58ecfadf
gsbg2009-06-06d01t13.flac:c7f6300b8bfbd62e8e00affe54a7adac
gsbg2009-06-06d01t14.flac:c42dcda80899107bc8e9f8a0d87fbf72
gsbg2009-06-06d01t15.flac:b53a516979e9bd1b4e8bff55cf8868b3
gsbg2009-06-06d02t01.flac:3739c0e832828fb246d97e0de781b570
gsbg2009-06-06d02t02.flac:aca20f6dbd5a5884208cabae8fa4c635
gsbg2009-06-06d02t03.flac:6d6640056709b88b5473d0f7f71daad5
gsbg2009-06-06d02t04.flac:05d2ef8bcd96df9b4e93b57ea2e05594
gsbg2009-06-06d02t05.flac:3e610f473b7e344a00f0989fc0bd6662
gsbg2009-06-06d02t06.flac:2ab8fdba9db5119418160410dde9f511
gsbg2009-06-06d02t07.flac:37b7981a09353bc100dfba8f66a989be
gsbg2009-06-06d02t08.flac:6ec273e1ea406795ffe0e40810ae39af
gsbg2009-06-06d02t09.flac:f868a8fd15b0a5855c3ce34a8bd921d2
gsbg2009-06-06d02t10.flac:a1d667f960bb15091435ea561b68d589
gsbg2009-06-06d02t11.flac:95b1ac75c57ce66a562b69c278530fed
gsbg2009-06-06d02t12.flac:ea26b43cf8308f64436c27b9e2d5a085
gsbg2009-06-06d02t13.flac:8bed0056b3ab560129193972642feffa
gsbg2009-06-06d03t01.flac:cadfacce7fe5835d454a0db24c0fd68d
gsbg2009-06-06d03t02.flac:2ac6fd8c604e3dca684d9bc1a3b35a23
gsbg2009-06-06d03t03.flac:0798a1f6061ff10a155f8f1b2eeb882a
gsbg2009-06-06d03t04.flac:df1f4e9a4f4049d8791d9074a3199c96
gsbg2009-06-06d03t05.flac:afe589853589185fb3dfc936f454481a
gsbg2009-06-06d03t06.flac:f03067ade94bb741cdb1a82f0465dfd4

shntool

    length     expanded size    cdr  WAVE problems  fmt   ratio  filename
     0:43.43        7686380 B   ---   --   ---xx   flac  0.3847  gsbg2009-06-06d01t01.flac
     4:32.27       48044348 B   ---   --   ---xx   flac  0.4797  gsbg2009-06-06d01t02.flac
     6:46.10       71641964 B   ---   --   ---xx   flac  0.5384  gsbg2009-06-06d01t03.flac
     4:21.40       46134524 B   ---   --   ---xx   flac  0.4570  gsbg2009-06-06d01t04.flac
     8:41.45       92010284 B   ---   --   ---xx   flac  0.5094  gsbg2009-06-06d01t05.flac
     5:24.65       57306524 B   ---   --   ---xx   flac  0.4967  gsbg2009-06-06d01t06.flac
     1:30.09       15897212 B   ---   --   ---xx   flac  0.4299  gsbg2009-06-06d01t07.flac
     5:37.44       59550332 B   ---   --   ---xx   flac  0.4930  gsbg2009-06-06d01t08.flac
     6:55.08       73224860 B   ---   --   ---xx   flac  0.4463  gsbg2009-06-06d01t09.flac
     4:42.63       49893020 B   ---   --   ---xx   flac  0.5003  gsbg2009-06-06d01t10.flac
     4:56.29       52282652 B   ---   --   ---xx   flac  0.5366  gsbg2009-06-06d01t11.flac
     5:37.16       59484476 B   ---   --   ---xx   flac  0.4967  gsbg2009-06-06d01t12.flac
     3:17.16       34788476 B   ---   --   ---xx   flac  0.5132  gsbg2009-06-06d01t13.flac
     4:03.05       42877004 B   ---   --   ---xx   flac  0.5174  gsbg2009-06-06d01t14.flac
    12:38.33      133788860 B   ---   --   ---xx   flac  0.5474  gsbg2009-06-06d01t15.flac
     0:46.32        8189708 B   ---   --   ---xx   flac  0.4596  gsbg2009-06-06d02t01.flac
     3:01.39       32020172 B   ---   --   ---xx   flac  0.5244  gsbg2009-06-06d02t02.flac
    12:09.70      128760284 B   ---   --   ---xx   flac  0.5075  gsbg2009-06-06d02t03.flac
     7:17.36       77171516 B   ---   --   ---xx   flac  0.4424  gsbg2009-06-06d02t04.flac
    11:15.13      119100620 B   ---   --   ---xx   flac  0.5268  gsbg2009-06-06d02t05.flac
     6:00.43       63605180 B   ---   --   ---xx   flac  0.4658  gsbg2009-06-06d02t06.flac
     6:28.47       68553788 B   ---   --   ---xx   flac  0.4542  gsbg2009-06-06d02t07.flac
     5:03.29       53517452 B   ---   --   ---xx   flac  0.5118  gsbg2009-06-06d02t08.flac
     5:09.60       54648764 B   ---   --   ---xx   flac  0.5126  gsbg2009-06-06d02t09.flac
     1:20.63       14260220 B   ---   --   ---xx   flac  0.5141  gsbg2009-06-06d02t10.flac
     2:13.72       23630588 B   ---   --   ---xx   flac  0.4024  gsbg2009-06-06d02t11.flac
     6:39.35       70465964 B   ---   --   ---xx   flac  0.4918  gsbg2009-06-06d02t12.flac
     9:11.41       97292876 B   ---   --   ---xx   flac  0.4772  gsbg2009-06-06d02t13.flac
     2:04.25       21932444 B   ---   --   ---xx   flac  0.4261  gsbg2009-06-06d03t01.flac
     1:11.27       12587948 B   ---   --   ---xx   flac  0.4230  gsbg2009-06-06d03t02.flac
    10:16.01      108664796 B   ---   --   ---xx   flac  0.4940  gsbg2009-06-06d03t03.flac
     1:11.61       12667916 B   ---   --   ---xx   flac  0.4733  gsbg2009-06-06d03t04.flac
     5:33.55       58870604 B   ---   --   ---xx   flac  0.5532  gsbg2009-06-06d03t05.flac
     2:15.23       23868140 B   ---   --   ---xx   flac  0.4991  gsbg2009-06-06d03t06.flac
   178:59.25     1894419896 B                            0.4969  (34 files)





Show Checksums
ffp
gsbg2009-06-06d01t01.flac:20a24700703c21927a8f037a8d8dc5ca
gsbg2009-06-06d01t02.flac:794904e3bda30388aad77ec7ada96a28
gsbg2009-06-06d01t03.flac:0bc88d5855efce8d1bc8d1810706a190
gsbg2009-06-06d01t04.flac:022097708ca2ea3d0265c4e80889f5d5
gsbg2009-06-06d01t05.flac:6401aa4814bb9c0a7c789ff2cffdf5df
gsbg2009-06-06d01t06.flac:4afb22a8dbbf506cc5816e752b3af03a
gsbg2009-06-06d01t07.flac:335499dbd7ecb2071626824d3308739b
gsbg2009-06-06d01t08.flac:a5c602ef00c928038c4f2c7f512cbd04
gsbg2009-06-06d01t09.flac:5c21df09f3c911cede7226fefb1c2e57
gsbg2009-06-06d01t10.flac:e1e318d71ae5dfa8fa5927ae935c5a52
gsbg2009-06-06d01t11.flac:54df07527dfc3e168817fd866ce1b3ff
gsbg2009-06-06d01t12.flac:fab62d1bfdbae3415ac7409e58ecfadf
gsbg2009-06-06d01t13.flac:c7f6300b8bfbd62e8e00affe54a7adac
gsbg2009-06-06d01t14.flac:c42dcda80899107bc8e9f8a0d87fbf72
gsbg2009-06-06d01t15.flac:b53a516979e9bd1b4e8bff55cf8868b3
gsbg2009-06-06d02t01.flac:3739c0e832828fb246d97e0de781b570
gsbg2009-06-06d02t02.flac:aca20f6dbd5a5884208cabae8fa4c635
gsbg2009-06-06d02t03.flac:6d6640056709b88b5473d0f7f71daad5
gsbg2009-06-06d02t04.flac:05d2ef8bcd96df9b4e93b57ea2e05594
gsbg2009-06-06d02t05.flac:3e610f473b7e344a00f0989fc0bd6662
gsbg2009-06-06d02t06.flac:2ab8fdba9db5119418160410dde9f511
gsbg2009-06-06d02t07.flac:37b7981a09353bc100dfba8f66a989be
gsbg2009-06-06d02t08.flac:6ec273e1ea406795ffe0e40810ae39af
gsbg2009-06-06d02t09.flac:f868a8fd15b0a5855c3ce34a8bd921d2
gsbg2009-06-06d02t10.flac:a1d667f960bb15091435ea561b68d589
gsbg2009-06-06d02t11.flac:95b1ac75c57ce66a562b69c278530fed
gsbg2009-06-06d02t12.flac:ea26b43cf8308f64436c27b9e2d5a085
gsbg2009-06-06d02t13.flac:8bed0056b3ab560129193972642feffa
gsbg2009-06-06d03t01.flac:cadfacce7fe5835d454a0db24c0fd68d
gsbg2009-06-06d03t02.flac:2ac6fd8c604e3dca684d9bc1a3b35a23
gsbg2009-06-06d03t03.flac:0798a1f6061ff10a155f8f1b2eeb882a
gsbg2009-06-06d03t04.flac:df1f4e9a4f4049d8791d9074a3199c96
gsbg2009-06-06d03t05.flac:afe589853589185fb3dfc936f454481a
gsbg2009-06-06d03t06.flac:f03067ade94bb741cdb1a82f0465dfd4

Comments
Add Comment
Other Sources (comments)
Source: Neuman SKM 184's >... (0)
Date User Comment