Browse Collections Artists Sources   Search Dates

Add Show    List Management    Help


Greensky Bluegrass 06/03/09
Victorian's Midnight Cafe, Columbus, OH
Comments Add Comment    Source Collectors    Add to Collection    Add to Want List    History
Source # 102981 Other Sources
Entered by
Checksums ffp
Disc Counts 0 / 0
Media Size
Date Circulated
Date Added
06/04/09
11/30/2009
Source Summary Source: Schoeps CCM4V'S(din)>Lunatec V2>Benchmark AD2K>Sound Devices 722 (24/48)
Location: FOB/DFC/KFC/ZFC/AARP 15' From Stage, 7' High
DSP: Sound Devices 722>Sound Forge 9.0>CD Wave>flac(16)
Recorded By: Z-Man 
Source Information - Download Text | Download Zip
Greensky Bluegrass
Victorian's Midnight Cafe
Columbus, Ohio
6/3/2009

Source: Schoeps CCM4V'S(din)>Lunatec V2>Benchmark AD2K>
Sound Devices 722 (24/48)
Location: FOB/DFC/KFC/ZFC/AARP 15' From Stage, 7' High
DSP: Sound Devices 722>Sound Forge 9.0>CD Wave>flac(16)
Recorded By: Z-Man
Seeded By: Z-Man
  
Disc I 1st Set

01 Greeting
02 When I Paint My Masterpiece
03 Middle Mountain Towns >
04 Breakdown
05 Tuesday Letter
06 Train Junkie
07 Banter
08 Pig In A Pen
09 I Might Have Lost My Lunchbox
10 All Four
11 200 Miles From Montana
12 Grow Bananas
13 Airmail Special

Disc II 2nd Set

01 Tuning
02 Old Barns
03 Stop That Train, I'm Leavin' >
04 You Can't Fool The Youth
05 Reverend
06 Eye Of The Tiger Tease
07 Hit Parade Of Love
08 Anders Banter - Swing Into Summer
09 Just To Lie >  
10 Bottle Dry
11 La Bamba Tease
12 Alberta Bound
13 Against The Days
14 King Of The Hill
Encore:
15 Crowd/Banter - Thanks
16 White Feightliner Blues
17 Drink Up And Go Home

Show Notes:

This was my first time at this venue. It is basically a restaurant/bar. It was a pretty good crowd for a Wednesday night crowd. I must say that the crowd was about as rambunctious as I have ever seen at a Greensky Show. These folks were very loud and had a great time! There is a good bit of chatter. I set up right in the middle of the floor, and by the time GSBG hit the stage, I was surrounded by the masses. No where to run, no where to hide!

Flac fingerprint

gsbg2009-06-03d01t01.flac:4e847b56ba602a199407633a4367da33
gsbg2009-06-03d01t02.flac:92fe58d9669af9284e7cfa34c4762942
gsbg2009-06-03d01t03.flac:50413910f2f695c4142de899cfb96be6
gsbg2009-06-03d01t04.flac:435ad13ce0d7b70f99fd2fbc8773d47e
gsbg2009-06-03d01t05.flac:34a4d25e538bd1ff203da15d68fe00cf
gsbg2009-06-03d01t06.flac:50a74ccca6b32a366c4f9c7c59c12c2a
gsbg2009-06-03d01t07.flac:afd32d386a9dd48818b4b34033ee2539
gsbg2009-06-03d01t08.flac:28a92bff67ee87177cb0a24e35fbaa5d
gsbg2009-06-03d01t09.flac:308fba9175b16164d21b33db8eb4e95c
gsbg2009-06-03d01t10.flac:0cde2a045ec89450e30e4086ae84a1bf
gsbg2009-06-03d01t11.flac:cb7a9c59ab223d57c68db7e3d5332acb
gsbg2009-06-03d01t12.flac:d46b392f583adb24d7ae4f705e04cacd
gsbg2009-06-03d01t13.flac:611e83c482fbec8431da28a7a5e9f289
gsbg2009-06-03d02t01.flac:b0c0a02a8da22c7dde6aedb7b67a96fa
gsbg2009-06-03d02t02.flac:9774a2ba923971abaf391b72a7c72420
gsbg2009-06-03d02t03.flac:28356fb8bb6777c385edef1c64a91a06
gsbg2009-06-03d02t04.flac:5dbff34c232b5987f8fb81d6ec8b2131
gsbg2009-06-03d02t05.flac:b91badab3ac08a68160a7200d9fc8916
gsbg2009-06-03d02t06.flac:ec00c2ce7c88d83d7ba75e02777ad26f
gsbg2009-06-03d02t07.flac:e090ec6ddacd59e220640ef81f6511e6
gsbg2009-06-03d02t08.flac:349655ff0e8a196391e415222dd39b99
gsbg2009-06-03d02t09.flac:5bb776462c094b728706ae54de89359b
gsbg2009-06-03d02t10.flac:46a1fd5089e7d5cd003bb0e3ddf9d14b
gsbg2009-06-03d02t11.flac:4c240e417e4c81403165bdc3f466a00d
gsbg2009-06-03d02t12.flac:bcdeee269e0d5960d04e321d6069dd74
gsbg2009-06-03d02t13.flac:37c359ddb9040355b05770d441304abb
gsbg2009-06-03d02t14.flac:dfac2a11b002f21388c5c35317c4310f
gsbg2009-06-03d02t15.flac:9a8a46875537aa8e637411e18522dd6a
gsbg2009-06-03d02t16.flac:31eccaeda02e92ac980677dfbf640b32
gsbg2009-06-03d02t17.flac:4b93e63d41b9414b036f01b67f64ba42

shntool

    length     expanded size    cdr  WAVE problems  fmt   ratio  filename
     0:30.64        5442572 B   ---   --   ---xx   flac  0.4232  gsbg2009-06-03d01t01.flac
     3:15.72       34567388 B   ---   --   ---xx   flac  0.4973  gsbg2009-06-03d01t02.flac
     3:23.34       35889212 B   ---   --   ---xx   flac  0.4930  gsbg2009-06-03d01t03.flac
     5:43.04       60514652 B   ---   --   ---xx   flac  0.4949  gsbg2009-06-03d01t04.flac
     3:39.20       38678684 B   ---   --   ---xx   flac  0.4901  gsbg2009-06-03d01t05.flac
    11:13.06      118731356 B   ---   --   ---xx   flac  0.5193  gsbg2009-06-03d01t06.flac
     2:03.65       21850124 B   ---   --   ---xx   flac  0.4403  gsbg2009-06-03d01t07.flac
     3:04.45       32563484 B   ---   --   ---xx   flac  0.5137  gsbg2009-06-03d01t08.flac
     4:01.49       42627692 B   ---   --   ---xx   flac  0.5082  gsbg2009-06-03d01t09.flac
    12:49.36      135736316 B   ---   --   ---xx   flac  0.5109  gsbg2009-06-03d01t10.flac
     7:03.17       74657228 B   ---   --   ---xx   flac  0.4796  gsbg2009-06-03d01t11.flac
     4:28.02       47279948 B   ---   --   ---xx   flac  0.4919  gsbg2009-06-03d01t12.flac
     6:59.46       74019836 B   ---   --   ---xx   flac  0.5453  gsbg2009-06-03d01t13.flac
     0:17.35        3081164 B   ---   --   ---xx   flac  0.4126  gsbg2009-06-03d02t01.flac
     5:33.59       58880012 B   ---   --   ---xx   flac  0.4890  gsbg2009-06-03d02t02.flac
     9:11.37       97283468 B   ---   --   ---xx   flac  0.5053  gsbg2009-06-03d02t03.flac
     7:08.13       75529820 B   ---   --   ---xx   flac  0.4902  gsbg2009-06-03d02t04.flac
     6:17.03       66509900 B   ---   --   ---xx   flac  0.5136  gsbg2009-06-03d02t05.flac
     0:32.74        5818892 B   ---   --   ---xx   flac  0.5002  gsbg2009-06-03d02t06.flac
     2:36.56       27650156 B   ---   --   ---xx   flac  0.5363  gsbg2009-06-03d02t07.flac
     1:03.34       11193212 B   ---   --   ---xx   flac  0.4496  gsbg2009-06-03d02t08.flac
     4:11.64       44426972 B   ---   --   ---xx   flac  0.5245  gsbg2009-06-03d02t09.flac
     6:02.58       63993260 B   ---   --   ---xx   flac  0.4756  gsbg2009-06-03d02t10.flac
     1:07.43       11919980 B   ---   --   ---xx   flac  0.4678  gsbg2009-06-03d02t11.flac
     2:48.56       29766956 B   ---   --   ---xx   flac  0.5308  gsbg2009-06-03d02t12.flac
     4:48.42       50902028 B   ---   --   ---xx   flac  0.4692  gsbg2009-06-03d02t13.flac
    13:08.54      139130252 B   ---   --   ---xx   flac  0.5235  gsbg2009-06-03d02t14.flac
     1:53.64       20083772 B   ---   --   ---xx   flac  0.4783  gsbg2009-06-03d02t15.flac
     5:39.60       59940764 B   ---   --   ---xx   flac  0.5678  gsbg2009-06-03d02t16.flac
     7:34.28       80151500 B   ---   --   ---xx   flac  0.4664  gsbg2009-06-03d02t17.flac
   148:13.40     1568820600 B                            0.5039  (30 files)



Show Checksums
ffp
gsbg2009-06-03d01t01.flac:4e847b56ba602a199407633a4367da33
gsbg2009-06-03d01t02.flac:92fe58d9669af9284e7cfa34c4762942
gsbg2009-06-03d01t03.flac:50413910f2f695c4142de899cfb96be6
gsbg2009-06-03d01t04.flac:435ad13ce0d7b70f99fd2fbc8773d47e
gsbg2009-06-03d01t05.flac:34a4d25e538bd1ff203da15d68fe00cf
gsbg2009-06-03d01t06.flac:50a74ccca6b32a366c4f9c7c59c12c2a
gsbg2009-06-03d01t07.flac:afd32d386a9dd48818b4b34033ee2539
gsbg2009-06-03d01t08.flac:28a92bff67ee87177cb0a24e35fbaa5d
gsbg2009-06-03d01t09.flac:308fba9175b16164d21b33db8eb4e95c
gsbg2009-06-03d01t10.flac:0cde2a045ec89450e30e4086ae84a1bf
gsbg2009-06-03d01t11.flac:cb7a9c59ab223d57c68db7e3d5332acb
gsbg2009-06-03d01t12.flac:d46b392f583adb24d7ae4f705e04cacd
gsbg2009-06-03d01t13.flac:611e83c482fbec8431da28a7a5e9f289
gsbg2009-06-03d02t01.flac:b0c0a02a8da22c7dde6aedb7b67a96fa
gsbg2009-06-03d02t02.flac:9774a2ba923971abaf391b72a7c72420
gsbg2009-06-03d02t03.flac:28356fb8bb6777c385edef1c64a91a06
gsbg2009-06-03d02t04.flac:5dbff34c232b5987f8fb81d6ec8b2131
gsbg2009-06-03d02t05.flac:b91badab3ac08a68160a7200d9fc8916
gsbg2009-06-03d02t06.flac:ec00c2ce7c88d83d7ba75e02777ad26f
gsbg2009-06-03d02t07.flac:e090ec6ddacd59e220640ef81f6511e6
gsbg2009-06-03d02t08.flac:349655ff0e8a196391e415222dd39b99
gsbg2009-06-03d02t09.flac:5bb776462c094b728706ae54de89359b
gsbg2009-06-03d02t10.flac:46a1fd5089e7d5cd003bb0e3ddf9d14b
gsbg2009-06-03d02t11.flac:4c240e417e4c81403165bdc3f466a00d
gsbg2009-06-03d02t12.flac:bcdeee269e0d5960d04e321d6069dd74
gsbg2009-06-03d02t13.flac:37c359ddb9040355b05770d441304abb
gsbg2009-06-03d02t14.flac:dfac2a11b002f21388c5c35317c4310f
gsbg2009-06-03d02t15.flac:9a8a46875537aa8e637411e18522dd6a
gsbg2009-06-03d02t16.flac:31eccaeda02e92ac980677dfbf640b32
gsbg2009-06-03d02t17.flac:4b93e63d41b9414b036f01b67f64ba42

Comments
Add Comment
Date User Comment