Browse Collections Artists Sources   Search Dates

Add Show    List Management    Help


Greensky Bluegrass 06/05/09
Bell's Brewery, Kalamazoo, Mi
Comments Add Comment    Source Collectors    Add to Collection    Add to Want List    History
Source # 102987 Other Sources
Entered by
Checksums ffp
Disc Counts 0 / 0
Media Size
Date Circulated
Date Added
06/06/09
11/30/2009
Source Summary Source: Schoeps CCM4V'S(din)>Lunatec V2>Benchmark AD2K> Sound Devices 722 (24/48)
Location: FOB/DFC/KFC/ZFC/AARP 18' From Stage, 7' High
DSP: Sound Devices 722>Sound Forge 9.0>CD Wave>flac(16)
Recorded By: Z-Man 
Source Information - Download Text | Download Zip
Greensky Bluegrass
Bell's Brewery
Kalamazoo, Michigan
6/5/2009

Source: Schoeps CCM4V'S(din)>Lunatec V2>Benchmark AD2K>
Sound Devices 722 (24/48)
Location: FOB/DFC/KFC/ZFC/AARP 18' From Stage, 7' High
DSP: Sound Devices 722>Sound Forge 9.0>CD Wave>flac(16)
Recorded By: Z-Man
Seeded By: Z-Man
  
Disc I 1st Set

01 Jam >
02 Small Axe
03 Sittin' On Top Of The World
04 Can't Make Time
05 Runnin' Through The Briars >
06 Bottle Dry
07 Radio Blues
08 200 Miles From Montana

Disc II 1st Set Con't

01 Banter By Anders
02 Broke Mountain Breakdown >
03 Funk Jam >
04 Tied Down
05 Hush Now Don't You Cry >
06 Reverend
07 Forever Young
08 *Walkin' The Dog
09 Can't Stop Now

Disc III 2nd Set

01 Tuning
02 Against The Days
03 #Gumboots >
04 *#Train Junkie
05 *#Baby You're Power
06 #Let It Ride
07 #@Takes Me Home
08 #@Reuben's Train >
09 #@%I Know You Rider >
10 #Percussion/Crowd >
11 #@Women Are Smarter >
12 #@I Know You Rider
Encore:
13 Banter
14 #@One Way Out

* With Joshua Davis On Guitar
# With Mike Shimmin On Drums
@ With Pete Sartounas On Guitar
% Power Outage during I Know You Rider

Flac fingerprint

gsbg2009-06-05d01t01.flac:1d464def5423a26819a4e5a97d3c1aea
gsbg2009-06-05d01t02.flac:9f8b0ff0aa38946576aac6b55681bf6d
gsbg2009-06-05d01t03.flac:46b2c16d5d9d05cc94390fb3cfabe20a
gsbg2009-06-05d01t04.flac:d9db1fad99ada084b3516e3e1f9ceff8
gsbg2009-06-05d01t05.flac:5831d7406a2f68a583bbb923cf9af006
gsbg2009-06-05d01t06.flac:d323f0e28bbd2fd2dd37965cf1abfbed
gsbg2009-06-05d01t07.flac:a02a9c97bee4a527be88ed319ea051ec
gsbg2009-06-05d01t08.flac:0592d4171f53ff75e97341db4a3210c3
gsbg2009-06-05d02t01.flac:bbe2f89dc739319c151286582bee0ee9
gsbg2009-06-05d02t02.flac:2df8fa7e9ed1253b2e8cb6e57ce4ffe3
gsbg2009-06-05d02t03.flac:a0ee4d8f35281db1ea7784502dd47b8e
gsbg2009-06-05d02t04.flac:7a36d92215388f779b36551c7aeae4ab
gsbg2009-06-05d02t05.flac:be84e63bb53ad9b3c86e99584493e9f1
gsbg2009-06-05d02t06.flac:4b5c91dda1bd189288ba4bb2aa79af93
gsbg2009-06-05d02t07.flac:82ed068411460ecc345869eaacb67c4a
gsbg2009-06-05d02t08.flac:be065e294405ffb519f70a59c7acfd33
gsbg2009-06-05d02t09.flac:44ed8882eeaccc937741c161bf66d62d
gsbg2009-06-05d03t01.flac:8e5036662c3f3ac2d8918640f590bb2d
gsbg2009-06-05d03t02.flac:9c0b3dc9e12fffa15a79bdfbc0a237ce
gsbg2009-06-05d03t03.flac:0e0fbdc35304c2dfc6162c214e7ae8ba
gsbg2009-06-05d03t04.flac:cd21ce0565a1a2329ac8278d62c6e8a2
gsbg2009-06-05d03t05.flac:cb081ea60d4b8480f50ab2c1195bf90e
gsbg2009-06-05d03t06.flac:0c8c75ef601732ddca1faaa064e19154
gsbg2009-06-05d03t07.flac:7945b682ad0fa070f256e633b78cf4eb
gsbg2009-06-05d03t08.flac:1a29303141e0ac12e3a746d10ec43975
gsbg2009-06-05d03t09.flac:32b02f516fd9dc735eb244db8b07672a
gsbg2009-06-05d03t10.flac:f25689caa9e506884ca8f4e2774ccc20
gsbg2009-06-05d03t11.flac:bc91c0e6d2d4617f455ccc57f0c8e9da
gsbg2009-06-05d03t12.flac:ed75472a0025bb19441fe1b42c47b8bb
gsbg2009-06-05d03t13.flac:19282775e556bb7844a8b532b7883c4d
gsbg2009-06-05d03t14.flac:4f6d2059ac0b96543806d40e4d5d9985

shntool

    length     expanded size    cdr  WAVE problems  fmt   ratio  filename
     1:47.39       18966572 B   ---   --   ---xx   flac  0.4212  gsbg2009-06-05d01t01.flac
     5:49.53       61688300 B   ---   --   ---xx   flac  0.5113  gsbg2009-06-05d01t02.flac
     3:59.14       42192572 B   ---   --   ---xx   flac  0.4971  gsbg2009-06-05d01t03.flac
     5:30.19       58256732 B   ---   --   ---xx   flac  0.4913  gsbg2009-06-05d01t04.flac
     3:25.28       36227900 B   ---   --   ---xx   flac  0.5251  gsbg2009-06-05d01t05.flac
     7:38.58       80927660 B   ---   --   ---xx   flac  0.4592  gsbg2009-06-05d01t06.flac
     4:35.04       48519452 B   ---   --   ---xx   flac  0.4961  gsbg2009-06-05d01t07.flac
     5:55.01       62624396 B   ---   --   ---xx   flac  0.4867  gsbg2009-06-05d01t08.flac
     1:55.45       20391884 B   ---   --   ---xx   flac  0.4355  gsbg2009-06-05d02t01.flac
     3:27.72       36684188 B   ---   --   ---xx   flac  0.5331  gsbg2009-06-05d02t02.flac
     6:50.14       72356972 B   ---   --   ---xx   flac  0.4799  gsbg2009-06-05d02t03.flac
     5:04.00       53625644 B   ---   --   ---xx   flac  0.5379  gsbg2009-06-05d02t04.flac
     4:01.38       42601820 B   ---   --   ---xx   flac  0.4467  gsbg2009-06-05d02t05.flac
     6:59.49       74026892 B   ---   --   ---xx   flac  0.4980  gsbg2009-06-05d02t06.flac
     5:29.18       58077980 B   ---   --   ---xx   flac  0.4925  gsbg2009-06-05d02t07.flac
     5:12.11       55062716 B   ---   --   ---xx   flac  0.5202  gsbg2009-06-05d02t08.flac
     5:49.07       61580108 B   ---   --   ---xx   flac  0.5645  gsbg2009-06-05d02t09.flac
     0:30.64        5442572 B   ---   --   ---xx   flac  0.4102  gsbg2009-06-05d03t01.flac
     3:58.54       42110252 B   ---   --   ---xx   flac  0.5082  gsbg2009-06-05d03t02.flac
     8:02.30       85095404 B   ---   --   ---xx   flac  0.5506  gsbg2009-06-05d03t03.flac
    10:12.48      108069740 B   ---   --   ---xx   flac  0.5591  gsbg2009-06-05d03t04.flac
     5:54.66       62600876 B   ---   --   ---xx   flac  0.5286  gsbg2009-06-05d03t05.flac
     6:13.57       65931308 B   ---   --   ---xx   flac  0.5211  gsbg2009-06-05d03t06.flac
    10:43.18      113467580 B   ---   --   ---xx   flac  0.5712  gsbg2009-06-05d03t07.flac
     4:21.46       46148636 B   ---   --   ---xx   flac  0.5711  gsbg2009-06-05d03t08.flac
     1:39.35       17545964 B   ---   --   ---xx   flac  0.6288  gsbg2009-06-05d03t09.flac
    12:47.68      135458780 B   ---   --   ---xx   flac  0.4826  gsbg2009-06-05d03t10.flac
     1:25.08       15012860 B   ---   --   ---xx   flac  0.4827  gsbg2009-06-05d03t11.flac
     4:00.64       42486572 B   ---   --   ---xx   flac  0.5952  gsbg2009-06-05d03t12.flac
     1:43.15       18204524 B   ---   --   ---xx   flac  0.4567  gsbg2009-06-05d03t13.flac
     8:20.08       88218860 B   ---   --   ---xx   flac  0.5656  gsbg2009-06-05d03t14.flac
   163:25.01     1729605716 B                            0.5183  (31 files)





Show Checksums
ffp
gsbg2009-06-05d01t01.flac:1d464def5423a26819a4e5a97d3c1aea
gsbg2009-06-05d01t02.flac:9f8b0ff0aa38946576aac6b55681bf6d
gsbg2009-06-05d01t03.flac:46b2c16d5d9d05cc94390fb3cfabe20a
gsbg2009-06-05d01t04.flac:d9db1fad99ada084b3516e3e1f9ceff8
gsbg2009-06-05d01t05.flac:5831d7406a2f68a583bbb923cf9af006
gsbg2009-06-05d01t06.flac:d323f0e28bbd2fd2dd37965cf1abfbed
gsbg2009-06-05d01t07.flac:a02a9c97bee4a527be88ed319ea051ec
gsbg2009-06-05d01t08.flac:0592d4171f53ff75e97341db4a3210c3
gsbg2009-06-05d02t01.flac:bbe2f89dc739319c151286582bee0ee9
gsbg2009-06-05d02t02.flac:2df8fa7e9ed1253b2e8cb6e57ce4ffe3
gsbg2009-06-05d02t03.flac:a0ee4d8f35281db1ea7784502dd47b8e
gsbg2009-06-05d02t04.flac:7a36d92215388f779b36551c7aeae4ab
gsbg2009-06-05d02t05.flac:be84e63bb53ad9b3c86e99584493e9f1
gsbg2009-06-05d02t06.flac:4b5c91dda1bd189288ba4bb2aa79af93
gsbg2009-06-05d02t07.flac:82ed068411460ecc345869eaacb67c4a
gsbg2009-06-05d02t08.flac:be065e294405ffb519f70a59c7acfd33
gsbg2009-06-05d02t09.flac:44ed8882eeaccc937741c161bf66d62d
gsbg2009-06-05d03t01.flac:8e5036662c3f3ac2d8918640f590bb2d
gsbg2009-06-05d03t02.flac:9c0b3dc9e12fffa15a79bdfbc0a237ce
gsbg2009-06-05d03t03.flac:0e0fbdc35304c2dfc6162c214e7ae8ba
gsbg2009-06-05d03t04.flac:cd21ce0565a1a2329ac8278d62c6e8a2
gsbg2009-06-05d03t05.flac:cb081ea60d4b8480f50ab2c1195bf90e
gsbg2009-06-05d03t06.flac:0c8c75ef601732ddca1faaa064e19154
gsbg2009-06-05d03t07.flac:7945b682ad0fa070f256e633b78cf4eb
gsbg2009-06-05d03t08.flac:1a29303141e0ac12e3a746d10ec43975
gsbg2009-06-05d03t09.flac:32b02f516fd9dc735eb244db8b07672a
gsbg2009-06-05d03t10.flac:f25689caa9e506884ca8f4e2774ccc20
gsbg2009-06-05d03t11.flac:bc91c0e6d2d4617f455ccc57f0c8e9da
gsbg2009-06-05d03t12.flac:ed75472a0025bb19441fe1b42c47b8bb
gsbg2009-06-05d03t13.flac:19282775e556bb7844a8b532b7883c4d
gsbg2009-06-05d03t14.flac:4f6d2059ac0b96543806d40e4d5d9985

Comments
Add Comment
Other Sources (comments)
Source: Neuman SKM 184's >... (0)
Date User Comment