Browse Collections Artists Sources   Search Dates

Add Show    List Management    Help


Greensky Bluegrass 02/08/09
The Ark, Ann Arbor, MI
Comments Add Comment    Source Collectors    Add to Collection    Add to Want List    History
Source # 102990 Other Sources
Entered by
Checksums ffp
Disc Counts 0 / 0
Media Size
Date Circulated
Date Added
02/09/09
11/30/2009
Source Summary Source: Schoeps CCM4V'S(din)>Lunatec V2>Sound Devices 722 (24/48)
Location: FOB/DFC/KFC/ZFC/AARP 3rd Row, 7' From Stage, 4' High
DSP: Sound Devices 722>Sound Forge 9.0>CD Wave>flac(16)
Recorded By: Z-Man 
Source Information - Download Text | Download Zip
Greensky Bluegrass
The Ark
Ann Arbor, Michigan
2/8/2009

Source: Schoeps CCM4V'S(din)>Lunatec V2>Sound Devices 722 (24/48)
Location: FOB/DFC/KFC/ZFC/AARP 3rd Row, 7' From Stage, 4' High
DSP: Sound Devices 722>Sound Forge 9.0>CD Wave>flac(16)
Recorded By: Z-Man
Seeded By: Z-Man

Disc I 1st Set

01 Introduction By Bill/Tuning
02 Old Barns
03 Jesus On The Mainline
04 Reverend
05 Instrumental
06
07 Middle Mountain Towns >
08 King Of The Hill
09 White Freightliner Blues
10 Banter
11 The River Waltz
12 Walkin' The Dog
13 Can't Stop Now

Disc II 2nd Set

01 Tuning/Banter
02 Indian Trail
03 What's Left Of The Night
04 Anders Performs Magic
05 Against The Days
06 Swing Low Sweet Chariot
07 Tuesday's Letter >
08 Train Junkie >
09 Welcome To The Machine >
10 Train Junkie
11 Anders - Banter
12 Pig In A Pen

Disc III 2nd Set Con't

01 Forever Young
02 200 Miles From Montana
03 Little Maggie >
04 Dry County >
05 Time>
06 Dry County
Encore:
07 Banter- Paul
08 Take Me Back Down The Road
09 Drink Up And Go Home

Flac fingerprint

gsbg2009-02-08d01t01.flac:18468c98841f2472e644131708984e8f
gsbg2009-02-08d01t02.flac:9ac946244fedf75bec76fd261a8fbf47
gsbg2009-02-08d01t03.flac:9a35f6041d98b34761daee51f705c1eb
gsbg2009-02-08d01t04.flac:de5d226726a894e8fd54cb995f8345b9
gsbg2009-02-08d01t05.flac:081105c3cf7b85b951fea35274fb2ee3
gsbg2009-02-08d01t06.flac:92a7e1e0694040ef0869699f2def4e11
gsbg2009-02-08d01t07.flac:6f5df6158a4d664068d9143852d931cf
gsbg2009-02-08d01t08.flac:283b801cac4eb8b6a2e879ab1f7693ba
gsbg2009-02-08d01t09.flac:41ac85b9f171cc5b9afdee96d6729a7e
gsbg2009-02-08d01t10.flac:796e7040ffc235da65c6b409ae1ba2ab
gsbg2009-02-08d01t11.flac:6346f06f00270441916dde5a1bebb65a
gsbg2009-02-08d01t12.flac:85283d4fe7c5e8e34de9ca1b54866229
gsbg2009-02-08d01t13.flac:15451f5e7a82f33f503ac7657667dd4e
gsbg2009-02-08d02t01.flac:bbebef1e1123ec54bdf94ae9df177597
gsbg2009-02-08d02t02.flac:b8bd5195d7be7df959cf4bfe6a5104d4
gsbg2009-02-08d02t03.flac:cfa925347fa90e065d0d542375d802d2
gsbg2009-02-08d02t04.flac:f15e39cd6ca52d7a16f04d60ea47aa9a
gsbg2009-02-08d02t05.flac:945f3c5b3b5fcf75a9deaccb1f2d90ff
gsbg2009-02-08d02t06.flac:aaa00e47b33ca86435aed4867d70ae82
gsbg2009-02-08d02t07.flac:4895c9d93161c9dcf4fba4c51e733d1b
gsbg2009-02-08d02t08.flac:2fa9f483854824b657b783a99606f78e
gsbg2009-02-08d02t09.flac:b1c66a8b4a8a2df3b34ce0f0fa78635b
gsbg2009-02-08d02t10.flac:ead8d1314ce194d083d483a29aa6f808
gsbg2009-02-08d02t11.flac:412054fb524225529184de9052f5e693
gsbg2009-02-08d02t12.flac:6a648332aae54c2d81ccc6e1e80405a4
gsbg2009-02-08d03t01.flac:045534578a05531e468ba78bc380c003
gsbg2009-02-08d03t02.flac:c75746873f7c5991616667e403d06029
gsbg2009-02-08d03t03.flac:a17526ce7df8c42b18d8973997b083fd
gsbg2009-02-08d03t04.flac:7ad1ee006eee256b2f87d50c1168ddd5
gsbg2009-02-08d03t05.flac:da5655dbd1637f39c3f2659b26732942
gsbg2009-02-08d03t06.flac:65fd947a1e5bda50d5eb794177a29e7f
gsbg2009-02-08d03t07.flac:3a737638e6732517cb8c2c7e51bfef97
gsbg2009-02-08d03t08.flac:cd065d616964fd4e86b121c3d0813cc7
gsbg2009-02-08d03t09.flac:96a90e3b24da29da50f146139f9bf585

shntool

    length     expanded size    cdr  WAVE problems  fmt   ratio  filename
     1:46.55       18827804 B   ---   --   ---xx   flac  0.2683  gsbg2009-02-08d01t01.flac
     5:09.34       54587612 B   ---   --   ---xx   flac  0.4663  gsbg2009-02-08d01t02.flac
     3:26.51       36458396 B   ---   --   ---xx   flac  0.5044  gsbg2009-02-08d01t03.flac
     6:43.05       71101004 B   ---   --   ---xx   flac  0.4047  gsbg2009-02-08d01t04.flac
     6:57.30       73629404 B   ---   --   ---xx   flac  0.4620  gsbg2009-02-08d01t05.flac
     5:20.62       56593868 B   ---   --   ---xx   flac  0.3159  gsbg2009-02-08d01t06.flac
     3:52.21       40974236 B   ---   --   ---xx   flac  0.4074  gsbg2009-02-08d01t07.flac
    10:25.38      110339420 B   ---   --   ---xx   flac  0.4286  gsbg2009-02-08d01t08.flac
     4:37.45       48968684 B   ---   --   ---xx   flac  0.4679  gsbg2009-02-08d01t09.flac
     1:25.46       15102236 B   ---   --   ---xx   flac  0.3628  gsbg2009-02-08d01t10.flac
     6:19.72       67024988 B   ---   --   ---xx   flac  0.3738  gsbg2009-02-08d01t11.flac
     2:42.35       28659164 B   ---   --   ---xx   flac  0.4427  gsbg2009-02-08d01t12.flac
     5:14.32       55464908 B   ---   --   ---xx   flac  0.4784  gsbg2009-02-08d01t13.flac
     1:02.55       11066204 B   ---   --   ---xx   flac  0.3530  gsbg2009-02-08d02t01.flac
     5:08.34       54411212 B   ---   --   ---xx   flac  0.4073  gsbg2009-02-08d02t02.flac
     6:56.33       73460060 B   ---   --   ---xx   flac  0.4647  gsbg2009-02-08d02t03.flac
     2:07.71       22569836 B   ---   --   ---xx   flac  0.3658  gsbg2009-02-08d02t04.flac
     4:24.65       46722524 B   ---   --   ---xx   flac  0.3859  gsbg2009-02-08d02t05.flac
     5:19.71       56438636 B   ---   --   ---xx   flac  0.4285  gsbg2009-02-08d02t06.flac
     4:51.03       51339500 B   ---   --   ---xx   flac  0.4060  gsbg2009-02-08d02t07.flac
     6:32.71       69315836 B   ---   --   ---xx   flac  0.4158  gsbg2009-02-08d02t08.flac
     1:37.18       17153180 B   ---   --   ---xx   flac  0.5124  gsbg2009-02-08d02t09.flac
     0:54.19        9570332 B   ---   --   ---xx   flac  0.4929  gsbg2009-02-08d02t10.flac
     1:51.71       19747436 B   ---   --   ---xx   flac  0.3534  gsbg2009-02-08d02t11.flac
     2:48.60       29776364 B   ---   --   ---xx   flac  0.4730  gsbg2009-02-08d02t12.flac
     3:15.12       34426268 B   ---   --   ---xx   flac  0.4406  gsbg2009-02-08d03t01.flac
     6:14.45       66079484 B   ---   --   ---xx   flac  0.4079  gsbg2009-02-08d03t02.flac
     6:12.18       65663180 B   ---   --   ---xx   flac  0.4282  gsbg2009-02-08d03t03.flac
     4:59.13       52774220 B   ---   --   ---xx   flac  0.4501  gsbg2009-02-08d03t04.flac
     6:01.72       63849788 B   ---   --   ---xx   flac  0.4722  gsbg2009-02-08d03t05.flac
     0:49.33        8721260 B   ---   --   ---xx   flac  0.4613  gsbg2009-02-08d03t06.flac
     1:20.00       14112044 B   ---   --   ---xx   flac  0.3734  gsbg2009-02-08d03t07.flac
     3:38.57       38589308 B   ---   --   ---xx   flac  0.4288  gsbg2009-02-08d03t08.flac
     7:01.50       74382044 B   ---   --   ---xx   flac  0.3595  gsbg2009-02-08d03t09.flac
   147:11.47     1557900440 B                            0.4223  (34 files)






Show Checksums
ffp
gsbg2009-02-08d01t01.flac:18468c98841f2472e644131708984e8f
gsbg2009-02-08d01t02.flac:9ac946244fedf75bec76fd261a8fbf47
gsbg2009-02-08d01t03.flac:9a35f6041d98b34761daee51f705c1eb
gsbg2009-02-08d01t04.flac:de5d226726a894e8fd54cb995f8345b9
gsbg2009-02-08d01t05.flac:081105c3cf7b85b951fea35274fb2ee3
gsbg2009-02-08d01t06.flac:92a7e1e0694040ef0869699f2def4e11
gsbg2009-02-08d01t07.flac:6f5df6158a4d664068d9143852d931cf
gsbg2009-02-08d01t08.flac:283b801cac4eb8b6a2e879ab1f7693ba
gsbg2009-02-08d01t09.flac:41ac85b9f171cc5b9afdee96d6729a7e
gsbg2009-02-08d01t10.flac:796e7040ffc235da65c6b409ae1ba2ab
gsbg2009-02-08d01t11.flac:6346f06f00270441916dde5a1bebb65a
gsbg2009-02-08d01t12.flac:85283d4fe7c5e8e34de9ca1b54866229
gsbg2009-02-08d01t13.flac:15451f5e7a82f33f503ac7657667dd4e
gsbg2009-02-08d02t01.flac:bbebef1e1123ec54bdf94ae9df177597
gsbg2009-02-08d02t02.flac:b8bd5195d7be7df959cf4bfe6a5104d4
gsbg2009-02-08d02t03.flac:cfa925347fa90e065d0d542375d802d2
gsbg2009-02-08d02t04.flac:f15e39cd6ca52d7a16f04d60ea47aa9a
gsbg2009-02-08d02t05.flac:945f3c5b3b5fcf75a9deaccb1f2d90ff
gsbg2009-02-08d02t06.flac:aaa00e47b33ca86435aed4867d70ae82
gsbg2009-02-08d02t07.flac:4895c9d93161c9dcf4fba4c51e733d1b
gsbg2009-02-08d02t08.flac:2fa9f483854824b657b783a99606f78e
gsbg2009-02-08d02t09.flac:b1c66a8b4a8a2df3b34ce0f0fa78635b
gsbg2009-02-08d02t10.flac:ead8d1314ce194d083d483a29aa6f808
gsbg2009-02-08d02t11.flac:412054fb524225529184de9052f5e693
gsbg2009-02-08d02t12.flac:6a648332aae54c2d81ccc6e1e80405a4
gsbg2009-02-08d03t01.flac:045534578a05531e468ba78bc380c003
gsbg2009-02-08d03t02.flac:c75746873f7c5991616667e403d06029
gsbg2009-02-08d03t03.flac:a17526ce7df8c42b18d8973997b083fd
gsbg2009-02-08d03t04.flac:7ad1ee006eee256b2f87d50c1168ddd5
gsbg2009-02-08d03t05.flac:da5655dbd1637f39c3f2659b26732942
gsbg2009-02-08d03t06.flac:65fd947a1e5bda50d5eb794177a29e7f
gsbg2009-02-08d03t07.flac:3a737638e6732517cb8c2c7e51bfef97
gsbg2009-02-08d03t08.flac:cd065d616964fd4e86b121c3d0813cc7
gsbg2009-02-08d03t09.flac:96a90e3b24da29da50f146139f9bf585

Comments
Add Comment
Date User Comment