Browse Collections Artists Sources   Search Dates

Add Show    List Management    Help


Greensky Bluegrass 05/24/09
Summer Camp Festival, Chillicothe, IL
Comments Add Comment    Source Collectors    Add to Collection    Add to Want List    History
Source # 102992 Other Sources
Entered by
Checksums ffp
Disc Counts 0 / 0
Media Size
Date Circulated
Date Added
05/26/09
11/30/2009
Source Summary Source: Crest XVCA48 Soundboard>Lunatec V2>Sound Devices 722 (24/48)
DSP: Sound Devices 722>Sound Forge 9.0>CD Wave>flac(16)
Recorded By: Z-Man 
Source Information - Download Text | Download Zip
Greensky Bluegrass
Summer Camp
Three Sisters Park
Chillicothe, Illinois
5/24/2009

Source: Crest XVCA48 Soundboard>Lunatec V2>Sound Devices 722 (24/48)
DSP: Sound Devices 722>Sound Forge 9.0>CD Wave>flac(16)
Recorded By: Z-Man
Seeded By: Z-Man
  
Disc I

01 Greetings/Banter
02 Just To Lie
03 Middle Mountain Towns >
04 Breakdown
05 White Freightliner Blues >
06 Bottle Dry
07 Banter
08 Stop That Train, I'm Leavin' >
09 You Can't Fool The Youths
10 200 Miles From Montana
11 Jesus On The Mainline
12 Road To Nowhere

Flac fingerprint

gsbg2009-05-24d01t01.flac:7d62f404473c25bfc4fdd39718f24eee
gsbg2009-05-24d01t02.flac:10cf3ca8ae6b5eead7ea183cd20b41fd
gsbg2009-05-24d01t03.flac:baa7e869af0cc3222d63b3cf653891a6
gsbg2009-05-24d01t04.flac:5fe2e11c55473cb729487f65642e9be2
gsbg2009-05-24d01t05.flac:169756931103c37db6e27dcb962dcac0
gsbg2009-05-24d01t06.flac:b7de96fcc2d80f44ba7c512441caf4cf
gsbg2009-05-24d01t07.flac:8f8bfd73ca364188926c1feca1d121cc
gsbg2009-05-24d01t08.flac:7f052eede435f7b7f6a10d85096ce414
gsbg2009-05-24d01t09.flac:a660040cc2c08db96a852e5f599416c5
gsbg2009-05-24d01t10.flac:79c71622aee039758e49421747141094
gsbg2009-05-24d01t11.flac:a0c6be7772becf89c23a69002e1f52ab
gsbg2009-05-24d01t12.flac:3664b01114ee1154394d31f22076a0fd

shntool

    length     expanded size    cdr  WAVE problems  fmt   ratio  filename
     0:25.10        4433564 B   ---   --   ---xx   flac  0.3683  gsbg2009-05-24d01t01.flac
     3:25.66       36317276 B   ---   --   ---xx   flac  0.4511  gsbg2009-05-24d01t02.flac
     3:38.30       38525804 B   ---   --   ---xx   flac  0.4534  gsbg2009-05-24d01t03.flac
     4:52.53       51633500 B   ---   --   ---xx   flac  0.4717  gsbg2009-05-24d01t04.flac
     3:53.25       41160044 B   ---   --   ---xx   flac  0.5239  gsbg2009-05-24d01t05.flac
     6:07.19       64783532 B   ---   --   ---xx   flac  0.4197  gsbg2009-05-24d01t06.flac
     1:30.46       15984236 B   ---   --   ---xx   flac  0.3189  gsbg2009-05-24d01t07.flac
     6:46.37       71705468 B   ---   --   ---xx   flac  0.4954  gsbg2009-05-24d01t08.flac
     6:48.12       71999468 B   ---   --   ---xx   flac  0.4385  gsbg2009-05-24d01t09.flac
     5:32.45       58670684 B   ---   --   ---xx   flac  0.4415  gsbg2009-05-24d01t10.flac
     3:28.48       36804140 B   ---   --   ---xx   flac  0.4780  gsbg2009-05-24d01t11.flac
     5:24.09       57174812 B   ---   --   ---xx   flac  0.4680  gsbg2009-05-24d01t12.flac
    51:53.25      549192528 B                            0.4571  (12 files)



Show Checksums
ffp
gsbg2009-05-24d01t01.flac:7d62f404473c25bfc4fdd39718f24eee
gsbg2009-05-24d01t02.flac:10cf3ca8ae6b5eead7ea183cd20b41fd
gsbg2009-05-24d01t03.flac:baa7e869af0cc3222d63b3cf653891a6
gsbg2009-05-24d01t04.flac:5fe2e11c55473cb729487f65642e9be2
gsbg2009-05-24d01t05.flac:169756931103c37db6e27dcb962dcac0
gsbg2009-05-24d01t06.flac:b7de96fcc2d80f44ba7c512441caf4cf
gsbg2009-05-24d01t07.flac:8f8bfd73ca364188926c1feca1d121cc
gsbg2009-05-24d01t08.flac:7f052eede435f7b7f6a10d85096ce414
gsbg2009-05-24d01t09.flac:a660040cc2c08db96a852e5f599416c5
gsbg2009-05-24d01t10.flac:79c71622aee039758e49421747141094
gsbg2009-05-24d01t11.flac:a0c6be7772becf89c23a69002e1f52ab
gsbg2009-05-24d01t12.flac:3664b01114ee1154394d31f22076a0fd

Comments
Add Comment
Other Sources (comments)
Crest XVCA48 Sbd(matrix... (0)
Date User Comment