Browse Collections Artists Sources   Search Dates

Add Show    List Management    Help


Greensky Bluegrass 05/24/09
Summer Camp Festival, Chillicothe, IL
Comments Add Comment    Source Collectors    Add to Collection    Add to Want List    History
Source # 102993 Other Sources
Entered by
Checksums ffp
Disc Counts 0 / 0
Media Size
Date Circulated
Date Added
05/26/09
11/30/2009
Source Summary Source: Crest XVCA48 Soundboard>Lunatec V2>Sound Devices 722 (24/48)
DSP: Sound Devices 722>Sound Forge 9.0>CD Wave>flac(16)
Recorded By: Z-Man
Seeded By: Z-Man 
Source Information - Download Text | Download Zip
Greensky Bluegrass Late Night
Campfire Stage
Summer Camp
Three Sisters Park
Chillicothe, Illinois
5/24/2009

Source: Crest XVCA48 Soundboard>Lunatec V2>Sound Devices 722 (24/48)
DSP: Sound Devices 722>Sound Forge 9.0>CD Wave>flac(16)
Recorded By: Z-Man
Seeded By: Z-Man
  
Disc I

01 Greetings By Paul/Banter
02 Little Maggie >
03 After Midnight
04 Old Barns
05 Pig In A Pen
06 Banter
07 Can't Make Time
08 When I Paint My Masterpiece
09 Indian Trail >
10 What's Left Of The Night
11 Banter
12 Tied Down
13 Cry Holy Unto The Lord
14 Don't Worry, Be Happy >
15 Doin' My Time >
16 Dry County >
17 Time >
18 Breathe Reprise >
19 Doin' My Time
20 Banter On Grassy Side Of The Moon
21 Load Off My Mind


Disc II

01 Banter
02 Just When Ya Think It Can't Get No Better
03 Can't Stop Now >
04 Jam >
05 Train Junkie
06 Into The Rafters
07 Heal The World (Short Version)
08 Reverend
09 Summer Camp Breakdown >
10 Jam >
11 Cassidy >
12 Cryptical Envelopment >
13 The Other One >
14 Cassidy
Encore:
15 Banter
16 All Four

Flac fingerprint

gsbglate2009-05-24d01t01.flac:dda16021272653139f51a2fe80146e8f
gsbglate2009-05-24d01t02.flac:b7592462871fcdd1bb4f3d79cd11f93e
gsbglate2009-05-24d01t03.flac:2f16adcb4e5a470b9a694c6399fa77bd
gsbglate2009-05-24d01t04.flac:cc7eb72f12c36f17ff0e4141491676e1
gsbglate2009-05-24d01t05.flac:8284be5f7faaad3a9102ede9f7128811
gsbglate2009-05-24d01t06.flac:9df562854eebfe089249eef7dea26e35
gsbglate2009-05-24d01t07.flac:46f5b0b131b79f1ff4e5ac06884aac23
gsbglate2009-05-24d01t08.flac:143c88432b966de136c55acbcdacbb22
gsbglate2009-05-24d01t09.flac:c0cd935c5ea01669fbd4863e43311f52
gsbglate2009-05-24d01t10.flac:05a3e27536193f1fcf2c54aaaa951883
gsbglate2009-05-24d01t11.flac:4952fe5801c21d9990113ffc6d0fb624
gsbglate2009-05-24d01t12.flac:7d447a7f8956516120033a082a38537d
gsbglate2009-05-24d01t13.flac:204240de574f3992499ccef4d98a5f21
gsbglate2009-05-24d01t14.flac:eec9bdf1f111a35cf9db0778dd29a868
gsbglate2009-05-24d01t15.flac:da47da58272cbad00e586d0c2f4ab828
gsbglate2009-05-24d01t16.flac:68c247cb2ce52e02384300e2c6d5211f
gsbglate2009-05-24d01t17.flac:7d1c36d1df1567532b6e603c0920b3e2
gsbglate2009-05-24d01t18.flac:59fff85ab3eda9976b2064dc9ea68306
gsbglate2009-05-24d01t19.flac:ec12c269bc199777c61087a7ad6065d0
gsbglate2009-05-24d01t20.flac:11b6ddf3d06f95a5d26d0b90e6cc1211
gsbglate2009-05-24d01t21.flac:af1239bf7ffe3a7cdbdc77a17203daca
gsbglate2009-05-24d02t01.flac:ed4829557af352ba302d68ba6c68d215
gsbglate2009-05-24d02t02.flac:8285cda80c83c7b4c845f6d0cdf6c363
gsbglate2009-05-24d02t03.flac:3ac42be346f13c7ce13ba8dd5deb7e44
gsbglate2009-05-24d02t04.flac:137951a58229e2404e6f2aecd48a9c16
gsbglate2009-05-24d02t05.flac:441fbb72760129b3633fd03ee555ea96
gsbglate2009-05-24d02t06.flac:f4e3cb04b43719bdf91335e358761e24
gsbglate2009-05-24d02t07.flac:8a6632c680feb9e58aa4937907005d19
gsbglate2009-05-24d02t08.flac:08d8ab48a8d85876c98825bc924f9cbc
gsbglate2009-05-24d02t09.flac:6867f9f3bd7155a8fb045b9c6afff764
gsbglate2009-05-24d02t10.flac:2f8939b2297b46188f5a15690bac90c0
gsbglate2009-05-24d02t11.flac:df8ae5c3d062d8071a1e67c79ae4204b
gsbglate2009-05-24d02t12.flac:839e6681734ec0f41e2bb8d547c6de0a
gsbglate2009-05-24d02t13.flac:5cf514a1a4403e57637b686722c74b2b
gsbglate2009-05-24d02t14.flac:3857a76c978f471d959e15552a90fb76
gsbglate2009-05-24d02t15.flac:4ee2ca8968bb3804798c08891af04ab0
gsbglate2009-05-24d02t16.flac:fe34660e1aab4b9938145fa4e0abc305

shntool

    length     expanded size    cdr  WAVE problems  fmt   ratio  filename
     0:33.09        5842412 B   ---   --   ---xx   flac  0.4091  gsbglate2009-05-24d01t01.flac
     4:21.24       46096892 B   ---   --   ---xx   flac  0.4968  gsbglate2009-05-24d01t02.flac
     4:36.14       48719372 B   ---   --   ---xx   flac  0.4856  gsbglate2009-05-24d01t03.flac
     4:28.50       47392844 B   ---   --   ---xx   flac  0.4714  gsbglate2009-05-24d01t04.flac
     2:35.49       27457292 B   ---   --   ---xx   flac  0.5184  gsbglate2009-05-24d01t05.flac
     1:42.41       18089276 B   ---   --   ---xx   flac  0.3725  gsbglate2009-05-24d01t06.flac
     5:24.25       57212444 B   ---   --   ---xx   flac  0.4579  gsbglate2009-05-24d01t07.flac
     2:48.25       29694044 B   ---   --   ---xx   flac  0.5079  gsbglate2009-05-24d01t08.flac
     4:55.43       52139180 B   ---   --   ---xx   flac  0.4717  gsbglate2009-05-24d01t09.flac
     6:38.69       70369532 B   ---   --   ---xx   flac  0.5171  gsbglate2009-05-24d01t10.flac
     1:57.02       20643548 B   ---   --   ---xx   flac  0.3363  gsbglate2009-05-24d01t11.flac
     5:14.06       55403756 B   ---   --   ---xx   flac  0.4575  gsbglate2009-05-24d01t12.flac
     3:57.31       41879756 B   ---   --   ---xx   flac  0.4722  gsbglate2009-05-24d01t13.flac
     3:34.20       37796684 B   ---   --   ---xx   flac  0.3897  gsbglate2009-05-24d01t14.flac
     6:11.52       65566748 B   ---   --   ---xx   flac  0.4647  gsbglate2009-05-24d01t15.flac
     4:46.26       50511596 B   ---   --   ---xx   flac  0.5120  gsbglate2009-05-24d01t16.flac
     4:53.09       51706412 B   ---   --   ---xx   flac  0.5277  gsbglate2009-05-24d01t17.flac
     0:50.39        8911772 B   ---   --   ---xx   flac  0.4722  gsbglate2009-05-24d01t18.flac
     1:18.35       13841564 B   ---   --   ---xx   flac  0.4754  gsbglate2009-05-24d01t19.flac
     2:09.58       22892060 B   ---   --   ---xx   flac  0.3442  gsbglate2009-05-24d01t20.flac
     5:42.12       60357068 B   ---   --   ---xx   flac  0.5245  gsbglate2009-05-24d01t21.flac
     1:43.67       18326828 B   ---   --   ---xx   flac  0.3179  gsbglate2009-05-24d02t01.flac
     7:03.51       74737196 B   ---   --   ---xx   flac  0.4395  gsbglate2009-05-24d02t02.flac
     5:00.50       53037644 B   ---   --   ---xx   flac  0.5081  gsbglate2009-05-24d02t03.flac
     1:50.06       19418156 B   ---   --   ---xx   flac  0.3558  gsbglate2009-05-24d02t04.flac
    11:26.63      121158620 B   ---   --   ---xx   flac  0.4553  gsbglate2009-05-24d02t05.flac
     4:43.45       50027084 B   ---   --   ---xx   flac  0.4142  gsbglate2009-05-24d02t06.flac
     0:37.39        6618572 B   ---   --   ---xx   flac  0.3195  gsbglate2009-05-24d02t07.flac
     7:48.27       82618748 B   ---   --   ---xx   flac  0.4088  gsbglate2009-05-24d02t08.flac
     3:35.27       37989548 B   ---   --   ---xx   flac  0.4769  gsbglate2009-05-24d02t09.flac
     5:22.61       56944316 B   ---   --   ---xx   flac  0.3585  gsbglate2009-05-24d02t10.flac
     9:58.70      105651884 B   ---   --   ---xx   flac  0.4431  gsbglate2009-05-24d02t11.flac
     1:07.26       11879996 B   ---   --   ---xx   flac  0.4319  gsbglate2009-05-24d02t12.flac
     3:20.50       35397644 B   ---   --   ---xx   flac  0.5307  gsbglate2009-05-24d02t13.flac
     1:10.52       12470348 B   ---   --   ---xx   flac  0.4361  gsbglate2009-05-24d02t14.flac
     1:23.55       14770604 B   ---   --   ---xx   flac  0.2940  gsbglate2009-05-24d02t15.flac
    12:31.74      132650492 B   ---   --   ---xx   flac  0.4727  gsbglate2009-05-24d02t16.flac
   157:25.52     1666221932 B                            0.4569  (37 files)




Show Checksums
ffp
gsbglate2009-05-24d01t01.flac:dda16021272653139f51a2fe80146e8f
gsbglate2009-05-24d01t02.flac:b7592462871fcdd1bb4f3d79cd11f93e
gsbglate2009-05-24d01t03.flac:2f16adcb4e5a470b9a694c6399fa77bd
gsbglate2009-05-24d01t04.flac:cc7eb72f12c36f17ff0e4141491676e1
gsbglate2009-05-24d01t05.flac:8284be5f7faaad3a9102ede9f7128811
gsbglate2009-05-24d01t06.flac:9df562854eebfe089249eef7dea26e35
gsbglate2009-05-24d01t07.flac:46f5b0b131b79f1ff4e5ac06884aac23
gsbglate2009-05-24d01t08.flac:143c88432b966de136c55acbcdacbb22
gsbglate2009-05-24d01t09.flac:c0cd935c5ea01669fbd4863e43311f52
gsbglate2009-05-24d01t10.flac:05a3e27536193f1fcf2c54aaaa951883
gsbglate2009-05-24d01t11.flac:4952fe5801c21d9990113ffc6d0fb624
gsbglate2009-05-24d01t12.flac:7d447a7f8956516120033a082a38537d
gsbglate2009-05-24d01t13.flac:204240de574f3992499ccef4d98a5f21
gsbglate2009-05-24d01t14.flac:eec9bdf1f111a35cf9db0778dd29a868
gsbglate2009-05-24d01t15.flac:da47da58272cbad00e586d0c2f4ab828
gsbglate2009-05-24d01t16.flac:68c247cb2ce52e02384300e2c6d5211f
gsbglate2009-05-24d01t17.flac:7d1c36d1df1567532b6e603c0920b3e2
gsbglate2009-05-24d01t18.flac:59fff85ab3eda9976b2064dc9ea68306
gsbglate2009-05-24d01t19.flac:ec12c269bc199777c61087a7ad6065d0
gsbglate2009-05-24d01t20.flac:11b6ddf3d06f95a5d26d0b90e6cc1211
gsbglate2009-05-24d01t21.flac:af1239bf7ffe3a7cdbdc77a17203daca
gsbglate2009-05-24d02t01.flac:ed4829557af352ba302d68ba6c68d215
gsbglate2009-05-24d02t02.flac:8285cda80c83c7b4c845f6d0cdf6c363
gsbglate2009-05-24d02t03.flac:3ac42be346f13c7ce13ba8dd5deb7e44
gsbglate2009-05-24d02t04.flac:137951a58229e2404e6f2aecd48a9c16
gsbglate2009-05-24d02t05.flac:441fbb72760129b3633fd03ee555ea96
gsbglate2009-05-24d02t06.flac:f4e3cb04b43719bdf91335e358761e24
gsbglate2009-05-24d02t07.flac:8a6632c680feb9e58aa4937907005d19
gsbglate2009-05-24d02t08.flac:08d8ab48a8d85876c98825bc924f9cbc
gsbglate2009-05-24d02t09.flac:6867f9f3bd7155a8fb045b9c6afff764
gsbglate2009-05-24d02t10.flac:2f8939b2297b46188f5a15690bac90c0
gsbglate2009-05-24d02t11.flac:df8ae5c3d062d8071a1e67c79ae4204b
gsbglate2009-05-24d02t12.flac:839e6681734ec0f41e2bb8d547c6de0a
gsbglate2009-05-24d02t13.flac:5cf514a1a4403e57637b686722c74b2b
gsbglate2009-05-24d02t14.flac:3857a76c978f471d959e15552a90fb76
gsbglate2009-05-24d02t15.flac:4ee2ca8968bb3804798c08891af04ab0
gsbglate2009-05-24d02t16.flac:fe34660e1aab4b9938145fa4e0abc305

Comments
Add Comment
Date User Comment