Browse Collections Artists Sources   Search Dates

Add Show    List Management    Help


Greensky Bluegrass 10/16/09
The Magic Bag, Ferndale, MI
Comments Add Comment    Source Collectors    Add to Collection    Add to Want List    History
Source # 102998 Other Sources
Entered by
Checksums ffp
Disc Counts 0 / 0
Media Size
Date Circulated
Date Added
10/17/09
12/01/2009
Source Summary Source: Schoeps CCM4V'S(din)>Lunatec V2>Benchmark AD2K> Sound Devices 722 (24/48)
Location: FOB/DFC/KFC/ZFC/AARP 12' From Stage, 6' High
DSP: Sound Devices 722>Sound Forge 9.0>CD Wave>flac(16)
Recorded By: Z-Man 
Source Information - Download Text | Download Zip
Greensky Bluegrass
Magic Bag
Ferndale, Michigan
10/16/2009

Source: Schoeps CCM4V'S(din)>Lunatec V2>Benchmark AD2K>
Sound Devices 722 (24/48)
Location: FOB/DFC/KFC/ZFC/AARP 12' From Stage, 6' High
DSP: Sound Devices 722>Sound Forge 9.0>CD Wave>flac(16)
Recorded By: Z-Man
Seeded By: Z-Man
  
Disc I 1st Set

01 Introduction
02 Reverend
03 Send Me Your Address From Heaven
04 200 Miles From Montana
05 Tunin/Banter
06 Stop That Train, I'm Leavin'
07 Can't Make Time
08 Middle Mountain Towns >
09 Foggy Mountain Special
10 Cassidy

Disc II 2nd Set

01 Tuning/Banter
02 Broke Mountain Breakdown >
03 Funk Jam >
04 Tied Down
05 Banter
06 Old Barns
07 Jesus On The Mainline >
08 Sweet Water Sea
09 *Jam >
10 #Freeborn Man >
11 Better This Way >
12 Freeborn Man
Encore:
13 Banter New Years Announcement/Bob Weir's Birthday
14 All Four

* With Blackbird Riff By Dave
# With Norwegian Wood and Reuben's Train Riffs

Flac Fingerprint

gsbg2009-10-16d01t01.flac:124fda6760ab78af43e95de213be33db
gsbg2009-10-16d01t02.flac:856a48aaf2a792c907d58900a09a5289
gsbg2009-10-16d01t03.flac:58966d775ee7b794f76d2e29e7e50c6e
gsbg2009-10-16d01t04.flac:685451ad195dbacdf38bff53cfebc3e4
gsbg2009-10-16d01t05.flac:c8bec5f29bdbbbd697b12815214f0b41
gsbg2009-10-16d01t06.flac:ee4581aab6280b69296b67d45b5a7069
gsbg2009-10-16d01t07.flac:1ebcfda5b21540014c4adec6dbd1723b
gsbg2009-10-16d01t08.flac:9ac9e3eb238992f405d801d1156bff72
gsbg2009-10-16d01t09.flac:e4e4f12dcb343ec67eb91a4ccb68818b
gsbg2009-10-16d01t10.flac:96830120df8cf441c92a1402571cdc10
gsbg2009-10-16d02t01.flac:f460faa0f3575b4db7557c503da78cf6
gsbg2009-10-16d02t02.flac:cbaf6131079a01f6c0ef7391d39a6cc3
gsbg2009-10-16d02t03.flac:4f845bf1665cb3d7550a828a5fbfba93
gsbg2009-10-16d02t04.flac:d9b88f15b94955533565d8648754e418
gsbg2009-10-16d02t05.flac:cc4454e1bf951e5d8ee5472e4444c8c6
gsbg2009-10-16d02t06.flac:87708eb5f94505b4efdc213800b2998d
gsbg2009-10-16d02t07.flac:26ef55132d0f14b5c48fd6d2b55243a7
gsbg2009-10-16d02t08.flac:ac96920510a2026e822899dcb2be848b
gsbg2009-10-16d02t09.flac:1a20eeb095d19aaac9bf251dc7e706c1
gsbg2009-10-16d02t10.flac:52a8f654e1e0fa4f6a636785d7f85717
gsbg2009-10-16d02t11.flac:fde88006b486e9bed972f8ce58a5283a
gsbg2009-10-16d02t12.flac:cfda62575f304281375182df67025eff
gsbg2009-10-16d02t13.flac:3e4ac1e22df055ec14e1409adee505d5
gsbg2009-10-16d02t14.flac:7f3a8ba673e4cb6f7c0fd086482170c0

Shntool

    length     expanded size    cdr  WAVE problems  fmt   ratio  filename
     0:21.47        3814988 B   ---   --   ---xx   flac  0.4098  gsbg2009-10-16d01t01.flac
     6:20.13       67062620 B   ---   --   ---xx   flac  0.4408  gsbg2009-10-16d01t02.flac
     3:36.64       38252972 B   ---   --   ---xx   flac  0.4631  gsbg2009-10-16d01t03.flac
     5:12.52       55159148 B   ---   --   ---xx   flac  0.4597  gsbg2009-10-16d01t04.flac
     1:16.69       13568732 B   ---   --   ---xx   flac  0.4164  gsbg2009-10-16d01t05.flac
     9:21.61       99103916 B   ---   --   ---xx   flac  0.4766  gsbg2009-10-16d01t06.flac
     6:56.16       73420076 B   ---   --   ---xx   flac  0.4363  gsbg2009-10-16d01t07.flac
     3:44.72       39682988 B   ---   --   ---xx   flac  0.4532  gsbg2009-10-16d01t08.flac
     4:20.19       45908732 B   ---   --   ---xx   flac  0.4853  gsbg2009-10-16d01t09.flac
    17:01.10      180127964 B   ---   --   ---xx   flac  0.4705  gsbg2009-10-16d01t10.flac
     0:37.62        6672668 B   ---   --   ---xx   flac  0.3860  gsbg2009-10-16d02t01.flac
     3:28.13       36721820 B   ---   --   ---xx   flac  0.4722  gsbg2009-10-16d02t02.flac
     7:15.07       76750508 B   ---   --   ---xx   flac  0.4606  gsbg2009-10-16d02t03.flac
     3:54.08       41296460 B   ---   --   ---xx   flac  0.4973  gsbg2009-10-16d02t04.flac
     1:26.36       15255116 B   ---   --   ---xx   flac  0.4423  gsbg2009-10-16d02t05.flac
     4:42.63       49893020 B   ---   --   ---xx   flac  0.4739  gsbg2009-10-16d02t06.flac
     3:27.19       36559532 B   ---   --   ---xx   flac  0.5093  gsbg2009-10-16d02t07.flac
     4:15.30       45052604 B   ---   --   ---xx   flac  0.4729  gsbg2009-10-16d02t08.flac
     1:49.11       19253516 B   ---   --   ---xx   flac  0.4097  gsbg2009-10-16d02t09.flac
    15:41.36      166077116 B   ---   --   ---xx   flac  0.4772  gsbg2009-10-16d02t10.flac
     4:15.57       45116108 B   ---   --   ---xx   flac  0.5219  gsbg2009-10-16d02t11.flac
     0:45.34        8018012 B   ---   --   ---xx   flac  0.5468  gsbg2009-10-16d02t12.flac
     1:37.61       17254316 B   ---   --   ---xx   flac  0.4568  gsbg2009-10-16d02t13.flac
    16:05.38      170315420 B   ---   --   ---xx   flac  0.4911  gsbg2009-10-16d02t14.flac
   127:34.73     1350338352 B                            0.4716  (24 files)




Show Checksums
ffp
gsbg2009-10-16d01t01.flac:124fda6760ab78af43e95de213be33db
gsbg2009-10-16d01t02.flac:856a48aaf2a792c907d58900a09a5289
gsbg2009-10-16d01t03.flac:58966d775ee7b794f76d2e29e7e50c6e
gsbg2009-10-16d01t04.flac:685451ad195dbacdf38bff53cfebc3e4
gsbg2009-10-16d01t05.flac:c8bec5f29bdbbbd697b12815214f0b41
gsbg2009-10-16d01t06.flac:ee4581aab6280b69296b67d45b5a7069
gsbg2009-10-16d01t07.flac:1ebcfda5b21540014c4adec6dbd1723b
gsbg2009-10-16d01t08.flac:9ac9e3eb238992f405d801d1156bff72
gsbg2009-10-16d01t09.flac:e4e4f12dcb343ec67eb91a4ccb68818b
gsbg2009-10-16d01t10.flac:96830120df8cf441c92a1402571cdc10
gsbg2009-10-16d02t01.flac:f460faa0f3575b4db7557c503da78cf6
gsbg2009-10-16d02t02.flac:cbaf6131079a01f6c0ef7391d39a6cc3
gsbg2009-10-16d02t03.flac:4f845bf1665cb3d7550a828a5fbfba93
gsbg2009-10-16d02t04.flac:d9b88f15b94955533565d8648754e418
gsbg2009-10-16d02t05.flac:cc4454e1bf951e5d8ee5472e4444c8c6
gsbg2009-10-16d02t06.flac:87708eb5f94505b4efdc213800b2998d
gsbg2009-10-16d02t07.flac:26ef55132d0f14b5c48fd6d2b55243a7
gsbg2009-10-16d02t08.flac:ac96920510a2026e822899dcb2be848b
gsbg2009-10-16d02t09.flac:1a20eeb095d19aaac9bf251dc7e706c1
gsbg2009-10-16d02t10.flac:52a8f654e1e0fa4f6a636785d7f85717
gsbg2009-10-16d02t11.flac:fde88006b486e9bed972f8ce58a5283a
gsbg2009-10-16d02t12.flac:cfda62575f304281375182df67025eff
gsbg2009-10-16d02t13.flac:3e4ac1e22df055ec14e1409adee505d5
gsbg2009-10-16d02t14.flac:7f3a8ba673e4cb6f7c0fd086482170c0

Comments
Add Comment
Date User Comment