Browse Collections Artists Sources   Search Dates

Add Show    List Management    Help


Greensky Bluegrass 09/30/09
Eddie's Attic, Decatuar, GA
Comments Add Comment    Source Collectors    Add to Collection    Add to Want List    History
Source # 103004 Other Sources
Entered by
Checksums ffp
Disc Counts 0 / 0
Media Size
Date Circulated
Date Added
10/01/09
12/01/2009
Source Summary Source: Schoeps CCM4V'S(din)>Lunatec V2>Benchmark AD2K>Sound Devices 722 (24/48)
Location: FOB/DFC/KFC/ZFC/AARP 15' From Stage, 7' High
DSP: Sound Devices 722>Sound Forge 9.0>CD Wave>flac(16)
Recorded By: Z-Man 
Source Information - Download Text | Download Zip
Greensky Bluegrass
Eddie's Attic
Decatur, Georgia
9/30/2009

Source: Schoeps CCM4V'S(din)>Lunatec V2>Benchmark AD2K>
Sound Devices 722 (24/48)
Location: FOB/DFC/KFC/ZFC/AARP 15' From Stage, 7' High
DSP: Sound Devices 722>Sound Forge 9.0>CD Wave>flac(16)
Recorded By: Z-Man
Seeded By: Z-Man
  
Disc I 1st Set

Sound Check:
01 Into The Rafters
1st Set:
02 Tuning/Introduction By Eddie
03 Winding Wheel >
04 Bottle Dry
05 Better Off ? (New)
06 Indian Trail >
07 What's Left Of The Night
08 Banter
09 Cry Holy Unto The Lord
10 All Four
11 I'm Still Here
12 Gold Rush
13 Jam >
14 When Doves Cry

Disc II 2nd Set

01 Reverend
02 200 Miles From Montana
03 Broke Mountain Breakdown >
04 Funk Jam >
05 Old Barns
06 Tuning/Banter
07 Sweet Water Sea
08 Banter  
09 Middle Mountain Towns>
10 Foggy Mountain Special
11 Favorite Things Jam >
12 Train Junkie
13 Just To Lie
Encore:
14 Banter
15 Dave Bathroom Break Jam >
16 White Freight Liner Blues

Flac Fingerprint

gsbg2009-09-30d01t01.flac:d0d37011d43c6201449f9e49f3e925df
gsbg2009-09-30d01t02.flac:47b568407332a029ee9b3ae04ce428b7
gsbg2009-09-30d01t03.flac:dde2897c56566e8efae865d3de60f904
gsbg2009-09-30d01t04.flac:442b5bf459acaa10eb505c1e5ab2d5f3
gsbg2009-09-30d01t05.flac:d2f376aecb2c6da7b6fef939b198f3d7
gsbg2009-09-30d01t06.flac:73d335eda1d4f098aedea5f4a329ba5a
gsbg2009-09-30d01t07.flac:2172d56dfbe37eca16c63d19b57c84a4
gsbg2009-09-30d01t08.flac:73bcfff00b4596f4924a981813731742
gsbg2009-09-30d01t09.flac:5836192adc358d739f68dedb3cdbc660
gsbg2009-09-30d01t10.flac:7e198ce49f8f282ea8216d1204e98dbf
gsbg2009-09-30d01t11.flac:2d722b57a0100d6c9927a0ba0ac8148f
gsbg2009-09-30d01t12.flac:62c3a5f74b161951ef811710ed26fafd
gsbg2009-09-30d01t13.flac:800d24943a8a898a41daf715d1a04e9f
gsbg2009-09-30d01t14.flac:84afa23574b1d5897b8583a50e9d4eb1
gsbg2009-09-30d02t01.flac:e1c26e44e6f01d8474a0e512c3e3fc26
gsbg2009-09-30d02t02.flac:a35390e7ea2ba55091362157a745a272
gsbg2009-09-30d02t03.flac:452648b9fcb58a894e3e505522acd4d2
gsbg2009-09-30d02t04.flac:bb254c86b58517fab06281ce878d6125
gsbg2009-09-30d02t05.flac:2f649975d767239c7ce8e3eaa756ac78
gsbg2009-09-30d02t06.flac:a4321cd06afac9adf15d7fe6f4178d75
gsbg2009-09-30d02t07.flac:eb6a93b4a33d6b8cc623df6ec03217b4
gsbg2009-09-30d02t08.flac:e0c29930c983b06bdf67aca52a9b449d
gsbg2009-09-30d02t09.flac:11c737fa02597c033570af709a7ff8d3
gsbg2009-09-30d02t10.flac:acdb39057b116fbfe140ef93d8ba4cdf
gsbg2009-09-30d02t11.flac:f0a5e78779138ce64e39c6a41bed951a
gsbg2009-09-30d02t12.flac:f8f4aded19599f7ee2713f7af1f340ac
gsbg2009-09-30d02t13.flac:8dae077cd2bc4621a3402ed9b1823f8d
gsbg2009-09-30d02t14.flac:a5993060f4afd2a8f32af4f7e07aedac
gsbg2009-09-30d02t15.flac:cc201bdc1bb36d064525f24baf08ec2e
gsbg2009-09-30d02t16.flac:d5e373df0309d5f7e8b445c2614c2991

Shntool

    length     expanded size    cdr  WAVE problems  fmt   ratio  filename
     3:24.46       36093836 B   ---   --   ---xx   flac  0.5579  gsbg2009-09-30d01t01.flac
     1:12.40       12794924 B   ---   --   ---xx   flac  0.3579  gsbg2009-09-30d01t02.flac
     5:21.17       56664428 B   ---   --   ---xx   flac  0.5045  gsbg2009-09-30d01t03.flac
     7:18.49       77378492 B   ---   --   ---xx   flac  0.4735  gsbg2009-09-30d01t04.flac
     4:38.17       49079228 B   ---   --   ---xx   flac  0.5574  gsbg2009-09-30d01t05.flac
     4:54.54       51988652 B   ---   --   ---xx   flac  0.5202  gsbg2009-09-30d01t06.flac
     7:07.20       75369884 B   ---   --   ---xx   flac  0.5385  gsbg2009-09-30d01t07.flac
     1:18.11       13785116 B   ---   --   ---xx   flac  0.4050  gsbg2009-09-30d01t08.flac
     3:21.47       35566988 B   ---   --   ---xx   flac  0.5380  gsbg2009-09-30d01t09.flac
    15:31.45      164334284 B   ---   --   ---xx   flac  0.4980  gsbg2009-09-30d01t10.flac
     4:15.12       45010268 B   ---   --   ---xx   flac  0.4999  gsbg2009-09-30d01t11.flac
     4:53.64       51835772 B   ---   --   ---xx   flac  0.5647  gsbg2009-09-30d01t12.flac
     3:49.13       40426220 B   ---   --   ---xx   flac  0.3848  gsbg2009-09-30d01t13.flac
    11:44.70      124350284 B   ---   --   ---xx   flac  0.5080  gsbg2009-09-30d01t14.flac
     6:57.22       73610588 B   ---   --   ---xx   flac  0.5043  gsbg2009-09-30d02t01.flac
     6:31.68       69132380 B   ---   --   ---xx   flac  0.4907  gsbg2009-09-30d02t02.flac
     3:23.53       35933900 B   ---   --   ---xx   flac  0.5321  gsbg2009-09-30d02t03.flac
     7:14.27       76621148 B   ---   --   ---xx   flac  0.4780  gsbg2009-09-30d02t04.flac
     4:36.44       48789932 B   ---   --   ---xx   flac  0.5424  gsbg2009-09-30d02t05.flac
     1:21.71       14455436 B   ---   --   ---xx   flac  0.3801  gsbg2009-09-30d02t06.flac
     4:17.25       45393644 B   ---   --   ---xx   flac  0.5007  gsbg2009-09-30d02t07.flac
     2:40.14       28256972 B   ---   --   ---xx   flac  0.3854  gsbg2009-09-30d02t08.flac
     3:43.36       39421916 B   ---   --   ---xx   flac  0.5062  gsbg2009-09-30d02t09.flac
     4:33.05       48169004 B   ---   --   ---xx   flac  0.5145  gsbg2009-09-30d02t10.flac
     1:44.72       18514988 B   ---   --   ---xx   flac  0.3564  gsbg2009-09-30d02t11.flac
    11:38.51      123247196 B   ---   --   ---xx   flac  0.5169  gsbg2009-09-30d02t12.flac
     3:15.00       34398044 B   ---   --   ---xx   flac  0.5306  gsbg2009-09-30d02t13.flac
     0:29.07        5132108 B   ---   --   ---xx   flac  0.3936  gsbg2009-09-30d02t14.flac
     3:06.06       32824556 B   ---   --   ---xx   flac  0.4019  gsbg2009-09-30d02t15.flac
     4:47.26       50687996 B   ---   --   ---xx   flac  0.5391  gsbg2009-09-30d02t16.flac
   149:12.57     1579268184 B                            0.5003  (30 files)



Show Checksums
ffp
gsbg2009-09-30d01t01.flac:d0d37011d43c6201449f9e49f3e925df
gsbg2009-09-30d01t02.flac:47b568407332a029ee9b3ae04ce428b7
gsbg2009-09-30d01t03.flac:dde2897c56566e8efae865d3de60f904
gsbg2009-09-30d01t04.flac:442b5bf459acaa10eb505c1e5ab2d5f3
gsbg2009-09-30d01t05.flac:d2f376aecb2c6da7b6fef939b198f3d7
gsbg2009-09-30d01t06.flac:73d335eda1d4f098aedea5f4a329ba5a
gsbg2009-09-30d01t07.flac:2172d56dfbe37eca16c63d19b57c84a4
gsbg2009-09-30d01t08.flac:73bcfff00b4596f4924a981813731742
gsbg2009-09-30d01t09.flac:5836192adc358d739f68dedb3cdbc660
gsbg2009-09-30d01t10.flac:7e198ce49f8f282ea8216d1204e98dbf
gsbg2009-09-30d01t11.flac:2d722b57a0100d6c9927a0ba0ac8148f
gsbg2009-09-30d01t12.flac:62c3a5f74b161951ef811710ed26fafd
gsbg2009-09-30d01t13.flac:800d24943a8a898a41daf715d1a04e9f
gsbg2009-09-30d01t14.flac:84afa23574b1d5897b8583a50e9d4eb1
gsbg2009-09-30d02t01.flac:e1c26e44e6f01d8474a0e512c3e3fc26
gsbg2009-09-30d02t02.flac:a35390e7ea2ba55091362157a745a272
gsbg2009-09-30d02t03.flac:452648b9fcb58a894e3e505522acd4d2
gsbg2009-09-30d02t04.flac:bb254c86b58517fab06281ce878d6125
gsbg2009-09-30d02t05.flac:2f649975d767239c7ce8e3eaa756ac78
gsbg2009-09-30d02t06.flac:a4321cd06afac9adf15d7fe6f4178d75
gsbg2009-09-30d02t07.flac:eb6a93b4a33d6b8cc623df6ec03217b4
gsbg2009-09-30d02t08.flac:e0c29930c983b06bdf67aca52a9b449d
gsbg2009-09-30d02t09.flac:11c737fa02597c033570af709a7ff8d3
gsbg2009-09-30d02t10.flac:acdb39057b116fbfe140ef93d8ba4cdf
gsbg2009-09-30d02t11.flac:f0a5e78779138ce64e39c6a41bed951a
gsbg2009-09-30d02t12.flac:f8f4aded19599f7ee2713f7af1f340ac
gsbg2009-09-30d02t13.flac:8dae077cd2bc4621a3402ed9b1823f8d
gsbg2009-09-30d02t14.flac:a5993060f4afd2a8f32af4f7e07aedac
gsbg2009-09-30d02t15.flac:cc201bdc1bb36d064525f24baf08ec2e
gsbg2009-09-30d02t16.flac:d5e373df0309d5f7e8b445c2614c2991

Comments
Add Comment
Date User Comment