Browse Collections Artists Sources   Search Dates

Add Show    List Management    Help


Greensky Bluegrass 09/17/09
The Ark, Ann Arbor, MI
Comments Add Comment    Source Collectors    Add to Collection    Add to Want List    History
Source # 103005 Other Sources
Entered by
Checksums ffp
Disc Counts 0 / 0
Media Size
Date Circulated
Date Added
09/18/09
12/01/2009
Source Summary Source: Schoeps CCM4V'S(din)>Lunatec V2>Benchmark AD2K> Sound Devices 722 (24/48)
Location: FOB/DFC/KFC/ZFC/AARP 3rd Row, 7' From Stage, 5' High
DSP: Sound Devices 722>Sound Forge 9.0>CD Wave>flac(16)
Recorded By: Z-Man 
Source Information - Download Text | Download Zip
Greensky Bluegrass
The Ark
Ann Arbor, Michigan
9/17/2009

Source: Schoeps CCM4V'S(din)>Lunatec V2>Benchmark AD2K>
Sound Devices 722 (24/48)
Location: FOB/DFC/KFC/ZFC/AARP 3rd Row, 7' From Stage, 5' High
DSP: Sound Devices 722>Sound Forge 9.0>CD Wave>flac(16)
Recorded By: Z-Man
Seeded By: Z-Man
  
Disc I

01 Introduction By Robin
02 Middle Mountain Towns >
03 Foggy Mountain Special
04 Tuesday Letter
05 Just To Lie >
06 Train Junkie
07 Against The Days
08 Banter On Sean And Kay's Wedding
09 Jesus On The Mainline
10 200 Miles From Montana
11 Sweet Water Sea
12 All Four

Disc II

01 Grow Bananas
02 I'm Walkin' The Dog >
03 New Rize Hill
04 Reverend
05 I'm Still Here
06 9 Days
07 Jam >
08 When Doves Cry
Encore:
09 Tuning
10 Tied Down

Flac Fingerprint

gsbg2009-09-17d01t01.flac:cc5ecbd8397ba8600d3418c2c3c9682f
gsbg2009-09-17d01t02.flac:182fb38e82891cf46d068686a7fa6cee
gsbg2009-09-17d01t03.flac:47337a73091e2cfed014d92c94bd3d1c
gsbg2009-09-17d01t04.flac:384f665b5813459b0579eb59e6b105d5
gsbg2009-09-17d01t05.flac:2f58fcf43436181ffd5aa8ef68183c73
gsbg2009-09-17d01t06.flac:5b9c913419f85fadfa757e2ea2cf631f
gsbg2009-09-17d01t07.flac:5e8e5e6a41be7672f4f051506114369b
gsbg2009-09-17d01t08.flac:986e1e3c26f2bcacb3b6f8f97a4be9fd
gsbg2009-09-17d01t09.flac:4a624e6bb08542ec86d072cbfbf1cbf6
gsbg2009-09-17d01t10.flac:157ac2ddb1b1b5ae2ce074c4e7b24de3
gsbg2009-09-17d01t11.flac:2afeb71295fc6f121f123706b475c6a6
gsbg2009-09-17d01t12.flac:111462145dd85e22922e20df1ccf1394
gsbg2009-09-17d02t01.flac:d1528e136dc9067cb08ef039a4cf6f0d
gsbg2009-09-17d02t02.flac:d4166d1276952b1db5532fc6435de5b4
gsbg2009-09-17d02t03.flac:a1c926d451fee4e13ca83cea0f1bfae9
gsbg2009-09-17d02t04.flac:59a5eec249811136273269b300f6a2dd
gsbg2009-09-17d02t05.flac:7e9be24002d25497e00ed6133a1370c8
gsbg2009-09-17d02t06.flac:ad4c024a4f1d3b5c179dad7b8a729c28
gsbg2009-09-17d02t07.flac:bbd42a3e50a11579102c21224cff87bf
gsbg2009-09-17d02t08.flac:c0c06f7f738080ccaa84ccbeaf774b57
gsbg2009-09-17d02t09.flac:c47c4a9ebef32aae78df6dea967db838
gsbg2009-09-17d02t10.flac:dd52291330b43e753f27f090707a58c8

Shntool

    length     expanded size    cdr  WAVE problems  fmt   ratio  filename
     0:44.48        7874540 B   ---   --   ---xx   flac  0.4503  gsbg2009-09-17d01t01.flac
     3:29.31       36940556 B   ---   --   ---xx   flac  0.4580  gsbg2009-09-17d01t02.flac
     5:10.07       54700508 B   ---   --   ---xx   flac  0.4701  gsbg2009-09-17d01t03.flac
     4:39.22       49267388 B   ---   --   ---xx   flac  0.4431  gsbg2009-09-17d01t04.flac
     4:20.60       46005164 B   ---   --   ---xx   flac  0.4469  gsbg2009-09-17d01t05.flac
    12:03.69      127699532 B   ---   --   ---xx   flac  0.4700  gsbg2009-09-17d01t06.flac
     3:37.20       38325884 B   ---   --   ---xx   flac  0.4430  gsbg2009-09-17d01t07.flac
     2:00.28       21233900 B   ---   --   ---xx   flac  0.3758  gsbg2009-09-17d01t08.flac
     3:17.56       34882556 B   ---   --   ---xx   flac  0.4817  gsbg2009-09-17d01t09.flac
     5:29.04       58045052 B   ---   --   ---xx   flac  0.4437  gsbg2009-09-17d01t10.flac
     5:02.55       53402204 B   ---   --   ---xx   flac  0.4352  gsbg2009-09-17d01t11.flac
    15:04.16      159503276 B   ---   --   ---xx   flac  0.4498  gsbg2009-09-17d01t12.flac
     5:15.07       55582508 B   ---   --   ---xx   flac  0.4224  gsbg2009-09-17d02t01.flac
     3:37.25       38337644 B   ---   --   ---xx   flac  0.4792  gsbg2009-09-17d02t02.flac
     5:20.09       56469212 B   ---   --   ---xx   flac  0.4527  gsbg2009-09-17d02t03.flac
     5:49.25       61622444 B   ---   --   ---xx   flac  0.4586  gsbg2009-09-17d02t04.flac
     4:22.04       46226252 B   ---   --   ---xx   flac  0.4598  gsbg2009-09-17d02t05.flac
     5:21.50       56742044 B   ---   --   ---xx   flac  0.3755  gsbg2009-09-17d02t06.flac
     3:34.32       37824908 B   ---   --   ---xx   flac  0.3383  gsbg2009-09-17d02t07.flac
     9:25.19       99710732 B   ---   --   ---xx   flac  0.4598  gsbg2009-09-17d02t08.flac
     0:51.05        9008204 B   ---   --   ---xx   flac  0.4139  gsbg2009-09-17d02t09.flac
     4:26.46       47030636 B   ---   --   ---xx   flac  0.4967  gsbg2009-09-17d02t10.flac
   113:02.38     1196435144 B                            0.4472  (22 files)



Show Checksums
ffp
gsbg2009-09-17d01t01.flac:cc5ecbd8397ba8600d3418c2c3c9682f
gsbg2009-09-17d01t02.flac:182fb38e82891cf46d068686a7fa6cee
gsbg2009-09-17d01t03.flac:47337a73091e2cfed014d92c94bd3d1c
gsbg2009-09-17d01t04.flac:384f665b5813459b0579eb59e6b105d5
gsbg2009-09-17d01t05.flac:2f58fcf43436181ffd5aa8ef68183c73
gsbg2009-09-17d01t06.flac:5b9c913419f85fadfa757e2ea2cf631f
gsbg2009-09-17d01t07.flac:5e8e5e6a41be7672f4f051506114369b
gsbg2009-09-17d01t08.flac:986e1e3c26f2bcacb3b6f8f97a4be9fd
gsbg2009-09-17d01t09.flac:4a624e6bb08542ec86d072cbfbf1cbf6
gsbg2009-09-17d01t10.flac:157ac2ddb1b1b5ae2ce074c4e7b24de3
gsbg2009-09-17d01t11.flac:2afeb71295fc6f121f123706b475c6a6
gsbg2009-09-17d01t12.flac:111462145dd85e22922e20df1ccf1394
gsbg2009-09-17d02t01.flac:d1528e136dc9067cb08ef039a4cf6f0d
gsbg2009-09-17d02t02.flac:d4166d1276952b1db5532fc6435de5b4
gsbg2009-09-17d02t03.flac:a1c926d451fee4e13ca83cea0f1bfae9
gsbg2009-09-17d02t04.flac:59a5eec249811136273269b300f6a2dd
gsbg2009-09-17d02t05.flac:7e9be24002d25497e00ed6133a1370c8
gsbg2009-09-17d02t06.flac:ad4c024a4f1d3b5c179dad7b8a729c28
gsbg2009-09-17d02t07.flac:bbd42a3e50a11579102c21224cff87bf
gsbg2009-09-17d02t08.flac:c0c06f7f738080ccaa84ccbeaf774b57
gsbg2009-09-17d02t09.flac:c47c4a9ebef32aae78df6dea967db838
gsbg2009-09-17d02t10.flac:dd52291330b43e753f27f090707a58c8

Comments
Add Comment
Date User Comment