Browse Collections Artists Sources   Search Dates

Add Show    List Management    Help


Greensky Bluegrass 05/09/09
Quarry Breakdown, Bowling Green, OH
Comments Add Comment    Source Collectors    Add to Collection    Add to Want List    History
Source # 103014 Other Sources
Entered by
Checksums ffp
Disc Counts 0 / 0
Media Size
Date Circulated
Date Added
05/11/09
12/01/2009
Source Summary Source: Crest VCA-32>Lunatec V2>Benchmark AD2K>Sound Devices 722 (24/48)
Location: Soundboard
DSP: Sound Devices 722>Sound Forge 9.0>CD Wave>flac(16)
Recorded By: Z-Man 
Source Information - Download Text | Download Zip
Greensky Bluegrass
Quarry Breakdown
Bowling Green, Ohio
5/9/2009

Source: Crest VCA-32>Lunatec V2>Benchmark AD2K>
Sound Devices 722 (24/48)
Location: Soundboard
DSP: Sound Devices 722>Sound Forge 9.0>CD Wave>flac(16)
Recorded By: Z-Man
Seeded By: Z-Man

Disc I

01 Tuning/Introduction By mikey Reese
02 Sittin' On Top Of The World
03 Middle Mountain Towns >
04
05 Train Junkie
06 Banter
07 Can't Make Time
08 Freeborn Man >
09 We're An American Band >
10 Freeborn Man >
11 200 Miles From Montana

Disc II

01 Tuning/Banter
02 All Four
03 Pig In A Pen
04 Reverend
05 Banter
06 Breakdown >
07 Heal The World (First Time Played) >
08 Breakdown
09 Banter
10 Jam>
11 Cassidy >
12 Cryptical Envelopment >
13 The Other One >
14 Cassidy

Flac fingerprint

gsbg2009-05-09d01t01.flac:0fbd120e24249fcdf14a1ec8709cdea6
gsbg2009-05-09d01t02.flac:fa3702498c2f35fb7735795ec3ef4422
gsbg2009-05-09d01t03.flac:ca494b6bc588f165d09fbcae6dfe2092
gsbg2009-05-09d01t04.flac:1263970450deb8e11e4a81d0649cde59
gsbg2009-05-09d01t05.flac:adf10762a721de5c6dc1951384b888f8
gsbg2009-05-09d01t06.flac:e1f9cf87087f5b263b99ffb804994693
gsbg2009-05-09d01t07.flac:9110cf8a75574ba85517e0e4a25b5f08
gsbg2009-05-09d01t08.flac:b1d2852645c8693782bb149797b4a231
gsbg2009-05-09d01t09.flac:816ad34b8658b38d07131c1eb0e83c7d
gsbg2009-05-09d01t10.flac:527969d9ecc2b4aa67d1021db3f55705
gsbg2009-05-09d01t11.flac:f52cef6eb828c65819980a10cc2b8367
gsbg2009-05-09d02t01.flac:9e18fa832e8aa39e2632444106105810
gsbg2009-05-09d02t02.flac:075ea9da7900a3da01a4e98d3a53db04
gsbg2009-05-09d02t03.flac:c14f29d93f0cd8072686403ed020b357
gsbg2009-05-09d02t04.flac:498e0945e64fba997f4047c0e1eafd3b
gsbg2009-05-09d02t05.flac:fec1bded0a33eb9574bbc2d5db4aa739
gsbg2009-05-09d02t06.flac:f0f8fa58cbddd3acce8d5e8cfbf780a8
gsbg2009-05-09d02t07.flac:25c02e7cc7d2110e1f632cd51b7c4fc3
gsbg2009-05-09d02t08.flac:4ae5a7fb8ee9a4a741f032f5a8a396fb
gsbg2009-05-09d02t09.flac:6c9c11514ecfb439db990c1f4c1c2f2c
gsbg2009-05-09d02t10.flac:d1aa737db15b9897eafa57c160efbc18
gsbg2009-05-09d02t11.flac:feedf8f9ded7f16719c052d661a4ad98
gsbg2009-05-09d02t12.flac:3062ae15896cb655e12c752a82bca74e
gsbg2009-05-09d02t13.flac:4109337df555b3fcce6d447f6fb14142
gsbg2009-05-09d02t14.flac:887c622e80c1096198412f49ddf8b269

shntool

    length     expanded size    cdr  WAVE problems  fmt   ratio  filename
     0:40.18        7098380 B   ---   --   ---xx   flac  0.3104  gsbg2009-05-09d01t01.flac
     5:24.12       57181868 B   ---   --   ---xx   flac  0.3771  gsbg2009-05-09d01t02.flac
     3:41.12       39012668 B   ---   --   ---xx   flac  0.4061  gsbg2009-05-09d01t03.flac
     4:24.44       46673132 B   ---   --   ---xx   flac  0.4036  gsbg2009-05-09d01t04.flac
     7:39.24       81024092 B   ---   --   ---xx   flac  0.4020  gsbg2009-05-09d01t05.flac
     1:30.44       15979532 B   ---   --   ---xx   flac  0.3070  gsbg2009-05-09d01t06.flac
     5:27.24       57739292 B   ---   --   ---xx   flac  0.3736  gsbg2009-05-09d01t07.flac
    11:17.02      119427548 B   ---   --   ---xx   flac  0.3862  gsbg2009-05-09d01t08.flac
     4:32.50       48098444 B   ---   --   ---xx   flac  0.4223  gsbg2009-05-09d01t09.flac
     2:37.73       27866540 B   ---   --   ---xx   flac  0.2959  gsbg2009-05-09d01t10.flac
     5:09.09       54528812 B   ---   --   ---xx   flac  0.3597  gsbg2009-05-09d01t11.flac
     0:59.70       10572284 B   ---   --   ---xx   flac  0.2765  gsbg2009-05-09d02t01.flac
    12:03.73      127708940 B   ---   --   ---xx   flac  0.3816  gsbg2009-05-09d02t02.flac
     2:36.43       27619580 B   ---   --   ---xx   flac  0.4050  gsbg2009-05-09d02t03.flac
     5:59.72       63496988 B   ---   --   ---xx   flac  0.3739  gsbg2009-05-09d02t04.flac
     1:33.19       16449932 B   ---   --   ---xx   flac  0.2981  gsbg2009-05-09d02t05.flac
     4:12.65       44605724 B   ---   --   ---xx   flac  0.3982  gsbg2009-05-09d02t06.flac
     2:58.39       31490972 B   ---   --   ---xx   flac  0.3509  gsbg2009-05-09d02t07.flac
     2:49.02       29816348 B   ---   --   ---xx   flac  0.3777  gsbg2009-05-09d02t08.flac
     1:26.21       15219836 B   ---   --   ---xx   flac  0.2969  gsbg2009-05-09d02t09.flac
     1:28.10       15546764 B   ---   --   ---xx   flac  0.3020  gsbg2009-05-09d02t10.flac
     7:23.27       78208748 B   ---   --   ---xx   flac  0.3823  gsbg2009-05-09d02t11.flac
     1:07.61       11962316 B   ---   --   ---xx   flac  0.3303  gsbg2009-05-09d02t12.flac
     3:50.28       40637900 B   ---   --   ---xx   flac  0.3993  gsbg2009-05-09d02t13.flac
     1:25.59       15132812 B   ---   --   ---xx   flac  0.3645  gsbg2009-05-09d02t14.flac
   102:20.01     1083099452 B                            0.3768  (25 files)






Show Checksums
ffp
gsbg2009-05-09d01t01.flac:0fbd120e24249fcdf14a1ec8709cdea6
gsbg2009-05-09d01t02.flac:fa3702498c2f35fb7735795ec3ef4422
gsbg2009-05-09d01t03.flac:ca494b6bc588f165d09fbcae6dfe2092
gsbg2009-05-09d01t04.flac:1263970450deb8e11e4a81d0649cde59
gsbg2009-05-09d01t05.flac:adf10762a721de5c6dc1951384b888f8
gsbg2009-05-09d01t06.flac:e1f9cf87087f5b263b99ffb804994693
gsbg2009-05-09d01t07.flac:9110cf8a75574ba85517e0e4a25b5f08
gsbg2009-05-09d01t08.flac:b1d2852645c8693782bb149797b4a231
gsbg2009-05-09d01t09.flac:816ad34b8658b38d07131c1eb0e83c7d
gsbg2009-05-09d01t10.flac:527969d9ecc2b4aa67d1021db3f55705
gsbg2009-05-09d01t11.flac:f52cef6eb828c65819980a10cc2b8367
gsbg2009-05-09d02t01.flac:9e18fa832e8aa39e2632444106105810
gsbg2009-05-09d02t02.flac:075ea9da7900a3da01a4e98d3a53db04
gsbg2009-05-09d02t03.flac:c14f29d93f0cd8072686403ed020b357
gsbg2009-05-09d02t04.flac:498e0945e64fba997f4047c0e1eafd3b
gsbg2009-05-09d02t05.flac:fec1bded0a33eb9574bbc2d5db4aa739
gsbg2009-05-09d02t06.flac:f0f8fa58cbddd3acce8d5e8cfbf780a8
gsbg2009-05-09d02t07.flac:25c02e7cc7d2110e1f632cd51b7c4fc3
gsbg2009-05-09d02t08.flac:4ae5a7fb8ee9a4a741f032f5a8a396fb
gsbg2009-05-09d02t09.flac:6c9c11514ecfb439db990c1f4c1c2f2c
gsbg2009-05-09d02t10.flac:d1aa737db15b9897eafa57c160efbc18
gsbg2009-05-09d02t11.flac:feedf8f9ded7f16719c052d661a4ad98
gsbg2009-05-09d02t12.flac:3062ae15896cb655e12c752a82bca74e
gsbg2009-05-09d02t13.flac:4109337df555b3fcce6d447f6fb14142
gsbg2009-05-09d02t14.flac:887c622e80c1096198412f49ddf8b269

Comments
Add Comment
Date User Comment