Browse Collections Artists Sources   Search Dates

Add Show    List Management    Help


Grateful Dead 12/28/79
Oakland Auditorium Arena, Oakland, CA
Comments Add Comment    Source Collectors    Add to Collection    Add to Want List    History
Source # 103117 Other Sources
Entered by Gary Field
Checksums flac-md5 , ffp
Disc Counts 2 / 2
Media Size
Date Circulated
Date Added
12/02/2009
12/02/2009
Source Summary flac16;Recording Info:Sennheiser 421 -> Cassette Master (Sony TC-158/Maxell UDXL-II90); Transfer Info: Cassette Master (Nakamichi DR-1) -> Sound Devices 744T (24bit/96k) -> Samplitude Professional v9.12 -> Adobe Audition v1.5 -> FLAC/16; Recorded By Joani Walker; All Transfers and Mastering By Charlie Miller; Remaster of shnid 89273 
  Archive
Source Information - Download Text | Download Zip
Grateful Dead - December 28, 1979
Oakland Auditorium - Oakland, CA

Recording Info:
Sennheiser 421 -> Cassette Master (Sony TC-158/Maxell UDXL-II90)

Transfer Info:
Cassette Master (Nakamichi DR-1) -> Sound Devices 744T (24bit/96k) ->
Samplitude Professional v9.12 -> Adobe Audition v1.5 -> FLAC/16
(2 Discs Audio / 2 Discs FLAC)

All Transfers and Mastering By Charlie Miller
[email protected]
December 1, 2009

Patch Info:
Nakamichi 700 -> Cassette Master -> Dat -> CD supplies:
Playing In The Band (16:20 - 16:32)

Notes:
-- Disc change is seamless
-- This is a re-master of shnid=89273
-- Recorded By Joani Walker
-- Thanks to Paul Scotton and Joani Walker for the tapes
-- Thanks to Joe B. Jones for his help with the pitch correction

Set 1:
d1t01 - Tuning
d1t02 - Sugaree
d1t03 - Mama Tried ->
d1t04 - Mexicali Blues
d1t05 - Row Jimmy
d1t06 - It's All Over Now
d1t07 - High Time
d1t08 - The Music Never Stopped

Set 2:
d1t09 - Tuning
d1t10 - Alabama Getaway ->
d1t11 - Greatest Story Ever Told
d2t01 - Terrapin Station ->
d2t02 - Playing In The Band ->
d2t03 - Drums ->
d2t04 - Space ->
d2t05 - Uncle John's Band ->
d2t06 - I Need A Miracle ->
d2t07 - Bertha ->
d2t08 - Good Lovin'

Encore:
d2t09 - Casey Jones
d2t10 - One More Saturday Night


SHNTOOL OUTPUT:
    length     expanded size   cdr  WAVE problems filename
     2:12.06       23298956    ---   --   -----   gd79-12-28d1t01.wav
    16:20.42      172970828    ---   --   -----   gd79-12-28d1t02.wav
     2:27.45       26036684    ---   --   -----   gd79-12-28d1t03.wav
     5:39.51       59919596    ---   --   -----   gd79-12-28d1t04.wav
    15:09.65      160500524    ---   --   -----   gd79-12-28d1t05.wav
     8:06.17       85770428    ---   --   -----   gd79-12-28d1t06.wav
     6:48.57       72105308    ---   --   -----   gd79-12-28d1t07.wav
     8:44.61       92577116    ---   --   -----   gd79-12-28d1t08.wav
     1:56.70       20627084    ---   --   -----   gd79-12-28d1t09.wav
     6:39.43       70484780    ---   --   -----   gd79-12-28d1t10.wav
     5:26.09       57527612    ---   --   -----   gd79-12-28d1t11.wav
    14:14.39      150737372    ---   --   -----   gd79-12-28d2t01.wav
    17:24.46      184269836    ---   --   -----   gd79-12-28d2t02.wav
     7:34.42       80184428    ---   --   -----   gd79-12-28d2t03.wav
     2:27.20       25977884    ---   --   -----   gd79-12-28d2t04.wav
     9:37.42      101881628    ---   --   -----   gd79-12-28d2t05.wav
     4:02.72       42858188    ---   --   -----   gd79-12-28d2t06.wav
     6:29.70       68784284    ---   --   -----   gd79-12-28d2t07.wav
     7:39.35       81049964    ---   --   -----   gd79-12-28d2t08.wav
     5:18.69       56257532    ---   --   -----   gd79-12-28d2t09.wav
     4:57.27       52454348    ---   --   -----   gd79-12-28d2t10.wav
   159:19.28     1686274380 B                     (totals for 21 files)
Show Checksums
flac-md5
be296fe8bb771679d91eb7d4a61336f1 *gd79-12-28d1t01.flac
7c36c72232d40e541c0a24f8a341456f *gd79-12-28d1t02.flac
7a592fb23e584caa5faf076ac84bc905 *gd79-12-28d1t03.flac
db0d2518424271616dd4bca66c51e60c *gd79-12-28d1t04.flac
3e367aae8d4dd0f8301a6b2cad829b3e *gd79-12-28d1t05.flac
b5c2d0a9300364f43cfa73270f8c0dbe *gd79-12-28d1t06.flac
3aea1a31a32db4a17fa9ef79e4d53b66 *gd79-12-28d1t07.flac
91b90d2be0858da5fcfe818bcd322273 *gd79-12-28d1t08.flac
cbaa56f61189955d4448eeb4a23ae29e *gd79-12-28d1t09.flac
2028020b3058232951b869fe38d0ffca *gd79-12-28d1t10.flac
72072677f3e0da3d2dd4bc9399583771 *gd79-12-28d1t11.flac
cd83eba58d90e4f42d257252d85bd98c *gd79-12-28d2t01.flac
4bbdeea998fe1d001404fbc9da2e1220 *gd79-12-28d2t02.flac
ea3ac777f5e1874b8d9655e879ec62f1 *gd79-12-28d2t03.flac
99f1f5f7e318d58b03ea61b47b5b7e70 *gd79-12-28d2t04.flac
892536d365dfdc7915c66312b748614c *gd79-12-28d2t05.flac
e5ec454609ed44e85bf3b11cd0b99e53 *gd79-12-28d2t06.flac
0fe24a13999880c6088dade149f19fa8 *gd79-12-28d2t07.flac
5dd883185b6e91ef8117350c3738673b *gd79-12-28d2t08.flac
d39197fad4ae9d7c23f3d19dc4d780e8 *gd79-12-28d2t09.flac
02f3f3a36fe3e9fac5179932d3e12e53 *gd79-12-28d2t10.flac
ffp
gd79-12-28d1t01.flac:052bf8b7fb244fefb1792bd61c3c0746
gd79-12-28d1t02.flac:08612032823dc7fcce2a3f34df2ea224
gd79-12-28d1t03.flac:6a845312384c89a62e2d6c939beb70d8
gd79-12-28d1t04.flac:8890cc9f6c341164bd49b5aff1844073
gd79-12-28d1t05.flac:fe315f8d26a84fe4bf565983c21a9563
gd79-12-28d1t06.flac:8ec0eba070048119be0824b2f0d4f960
gd79-12-28d1t07.flac:f8eeaa068468d98e37d654a5c93e2c3c
gd79-12-28d1t08.flac:7cc4ffe33fc8a349de30829467aed34c
gd79-12-28d1t09.flac:1bcb3b9c1905a125b4f58862f1627ed9
gd79-12-28d1t10.flac:f6357534dfd57a7c2df78f3360663bf6
gd79-12-28d1t11.flac:a756bf79a9f7c95315e4adece55ad587
gd79-12-28d2t01.flac:1d584428dff9ee0d484e79ab8a78c713
gd79-12-28d2t02.flac:d9bd0ddd1bd46907c5af833b81485078
gd79-12-28d2t03.flac:0d890a6718dbb41d8b51b7defd26938b
gd79-12-28d2t04.flac:c51c4b2a236b8923ce3e6753ec1a8019
gd79-12-28d2t05.flac:97f2db0ba69da546e7ee80830c39775b
gd79-12-28d2t06.flac:4c76dd1fe26cd2db7e0ca251121667eb
gd79-12-28d2t07.flac:e46dfe9e345a2c9c92b38cf9fab6de63
gd79-12-28d2t08.flac:e19c2464fbd05cfb0a0e97e7bd1b8d84
gd79-12-28d2t09.flac:477263be42990ada4d423a440aa4a895
gd79-12-28d2t10.flac:f7af26b2405d53f7b44bc4d02c276811

Comments
Add Comment
Other Sources (comments)
SBD; transferred and seeded... (1) Recording by Steve Rolfe:... (0) sector boundary errors... (0) flac16; SBD > MR >... (1) flac16; Recording by... (0) flac16; Matrix by... (0) flac16; Recorded By... (0) flac16; Recording... (0) flac16; Recording... (0) flac16; Recording... (0)
Date User Comment