Browse Collections Artists Sources   Search Dates

Add Show    List Management    Help


Grateful Dead 09/03/80
Springfield Civic Center, Springfield, MA
Comments Add Comment    Source Collectors    Add to Collection    Add to Want List    History
Source # 103168 Other Sources
Entered by Gary Field
Checksums ffp , flac-md5
Disc Counts 3 / 0
Media Size
Date Circulated
Date Added
12/06/2009
12/06/2009
Source Summary flac24;FOB AUD: 2x Nakamichi CM300/CP4 shotguns > Nakamichi 550 > Maxell XLII 90's, mics on stand, set up in the arena riser center, end of floor facing the stage. Taped by Tim Friend. Transfer: MAC > Nakamichi DR-2 > Edirol FA-66 > Wavelab > CD-Wave > TLH > FLAC 2448 Tagged. Transfer by Andrew F. 12/2009  
  Archive
Source Information - Download Text | Download Zip
GRATEFUL DEAD
Civic Center
Springfield MA
09-03-1980

24bit/48kHz file-set

s1t01 crowd & tuning
s1t02 Mississippi Half Step >
s1t03 Franklin's Tower >
s1t04 Mama Tried >
s1t05 Mexicali Blues
s1t06 Althea >
s1t07 Little Red Rooster
s1t08 Candyman
s1t09 Easy to Love You
s1t10 Let it Grow >
s1t11 Deal

s2t01 crowd & tuning
s2t02 Feel Like a Stranger
s2t03 High Time
s2t04 Lost Sailor >
s2t05 Saint of Circumstance >
s2t06 Jam >
s2t07 Drums >
s2t08 Space >
s2t09 He's Gone >
s2t10 Truckin' >
s2t11 Black Peter >
s2t12 Around & Around >
s2t13 Johnny B. Goode
s2t14 crowd & tuning
s2t15 Encore: Brokedown Palace

FOB AUD: 2x Nakamichi CM300/CP4 shotguns > Nakamichi 550 >
Maxell XLII 90's, mics on stand, set up in the arena riser
center, end of floor facing the stage. Taped by Tim Friend.

Transfer: MAC > Nakamichi DR-2 > Edirol FA-66 > Wavelab >
CD-Wave > TLH > FLAC 2448 Tagged. Transfer by Andrew F.
12/2009

Note: Patch from ID-12576 in Drums from 1:14 to 1:54.

5790daf5031d689683658c93e89c2e6e *gd1980-09-03s1t01.flac
2a4ad78179af5edcacf53b6124d9d6fb *gd1980-09-03s1t02.flac
e9342e109a69a52b7fe8df097af27ad9 *gd1980-09-03s1t03.flac
c4cc233c7ae9510f8d0195ead00015b3 *gd1980-09-03s1t04.flac
4d94eb3bbf32e0f005b324c96bc90a8b *gd1980-09-03s1t05.flac
1218b3019771356c4a6731cce507d50d *gd1980-09-03s1t06.flac
88c52beac3f5614c8453aba59cef45ac *gd1980-09-03s1t07.flac
4ab3d86cb9a8edec9e6ec3735a67c681 *gd1980-09-03s1t08.flac
914eafe0f697486cef99a605730dcb6e *gd1980-09-03s1t09.flac
cdd89c3f022277bb0cae05ac8b770b6e *gd1980-09-03s1t10.flac
9a9063182e735e4430e91d6ed197967d *gd1980-09-03s1t11.flac
6304fe705a373e64e038992315ac1366 *gd1980-09-03s2t01.flac
1273ceb271fc08fbd31bd043d7e18a8d *gd1980-09-03s2t02.flac
d95711fefd91fd1747dd30942916886d *gd1980-09-03s2t03.flac
4276664ee5ad8c55435921cf745d9907 *gd1980-09-03s2t04.flac
bb860b6c750974fdd8fe3bb6469d1382 *gd1980-09-03s2t05.flac
166eac4c4df4ddead2d4e01966e08e6e *gd1980-09-03s2t06.flac
f4ee77f22ccdaa98f5c446796a6d6032 *gd1980-09-03s2t07.flac
e23457c54c3f5bb47128f45e00d2adde *gd1980-09-03s2t08.flac
ae24b540aca16343698869f7a119b86c *gd1980-09-03s2t09.flac
d18936b13dc7c56b3098f6aeb020c35e *gd1980-09-03s2t10.flac
c4b260fab20f9d08b1e669e80709c132 *gd1980-09-03s2t11.flac
daa1536ca161b1df0a05aab3589b2fa7 *gd1980-09-03s2t12.flac
309604ab15d970898448b09885303f43 *gd1980-09-03s2t13.flac
3c25c4e7079e5f32fd6e90b571102489 *gd1980-09-03s2t14.flac
80a204f9b05985251ae70506243a4d62 *gd1980-09-03s2t15.flac

gd1980-09-03s1t01.flac:3d043f873b20f9d162daf78db2ce4538
gd1980-09-03s1t02.flac:db815771d42db7900fed925640a19c9c
gd1980-09-03s1t03.flac:be1adec422d60f8acdc9bfe8b7f4b9a6
gd1980-09-03s1t04.flac:384d48c6036a9cd55eec7fac83e8a05e
gd1980-09-03s1t05.flac:e3cb080f93078371125bc5571d06c83d
gd1980-09-03s1t06.flac:4ff80eccc93bfc49ebb3d809baf66d49
gd1980-09-03s1t07.flac:f65f93a621cb794a64880916f2d3dcca
gd1980-09-03s1t08.flac:96dd79e2c5515a782940b3407fdebeef
gd1980-09-03s1t09.flac:583c89dba949a61839833d1bd6d3feed
gd1980-09-03s1t10.flac:c117b8985043a14f1f362d02d5d929d2
gd1980-09-03s1t11.flac:ff51b04628ab6f201d4ff33aad8dc794
gd1980-09-03s2t01.flac:7c30a122c954deaad51e2315b61c5e05
gd1980-09-03s2t02.flac:46a2c8223a103429d46bb273334a6d3d
gd1980-09-03s2t03.flac:899aae68d7600fbb1d40287638a363de
gd1980-09-03s2t04.flac:773d0b0df483694bc35ab55b8da25794
gd1980-09-03s2t05.flac:15e5153ad3cd20884d3e76039ddae714
gd1980-09-03s2t06.flac:3df12964f12f4f1b69d3a6f831d39da6
gd1980-09-03s2t07.flac:8989874671089979dc9aae87848c51a6
gd1980-09-03s2t08.flac:d8b4a263701a937bf505d25d91e41901
gd1980-09-03s2t09.flac:84e8c8628e6436aa28de5317ef61848a
gd1980-09-03s2t10.flac:e63b70f7582c772c82dbaf4ffe8946c3
gd1980-09-03s2t11.flac:e9bab4034ce82b62b2b3d223ab4eb8de
gd1980-09-03s2t12.flac:504b40bce864e29d3193468ed1726d9a
gd1980-09-03s2t13.flac:f65d3f014758618b6ffc0587a38c9748
gd1980-09-03s2t14.flac:6d203480bc3c734804b9a43beaf0921f
gd1980-09-03s2t15.flac:5670a457f0ef2e67008fa98670d70de8

    length     expanded size    cdr  WAVE problems  fmt   ratio  filename
     0:50.307      14488364 B   cxx   --   ---xx   flac  0.6562  gd1980-09-03s1t01.flac
     8:11.200     141465644 B   cxx   --   ---xx   flac  0.7023  gd1980-09-03s1t02.flac
     9:07.013     157539884 B   cxx   --   ---xx   flac  0.7041  gd1980-09-03s1t03.flac
     2:25.453      41890604 B   cxx   --   ---xx   flac  0.7116  gd1980-09-03s1t04.flac
     5:39.493      97774124 B   cxx   --   ---xx   flac  0.7123  gd1980-09-03s1t05.flac
     7:53.787     136450604 B   cxx   --   ---xx   flac  0.7013  gd1980-09-03s1t06.flac
     8:10.319     141211814 B   cxx   --   ---xx   flac  0.7024  gd1980-09-03s1t07.flac
     8:21.667     144480044 B   cxx   --   ---xx   flac  0.6996  gd1980-09-03s1t08.flac
     4:05.000      70560044 B   cxx   --   ---xx   flac  0.7130  gd1980-09-03s1t09.flac
    10:45.547     185917484 B   cxx   --   ---xx   flac  0.7155  gd1980-09-03s1t10.flac
     4:33.691      78822998 B   cxx   --   ---xx   flac  0.7180  gd1980-09-03s1t11.flac
     2:09.067      37171244 B   cxx   --   ---xx   flac  0.6705  gd1980-09-03s2t01.flac
    11:38.213     201085484 B   cxx   --   ---xx   flac  0.7072  gd1980-09-03s2t02.flac
     8:35.067     148339244 B   cxx   --   ---xx   flac  0.6897  gd1980-09-03s2t03.flac
     6:50.733     118291244 B   cxx   --   ---xx   flac  0.6923  gd1980-09-03s2t04.flac
     6:06.613     105584684 B   cxx   --   ---xx   flac  0.7171  gd1980-09-03s2t05.flac
     5:26.467      94022444 B   cxx   --   ---xx   flac  0.6788  gd1980-09-03s2t06.flac
    10:35.657     183069260 B   cxx   --   ---xx   flac  0.6633  gd1980-09-03s2t07.flac
     2:28.427      42746924 B   cxx   --   ---xx   flac  0.6721  gd1980-09-03s2t08.flac
    10:21.133     178886444 B   cxx   --   ---xx   flac  0.6922  gd1980-09-03s2t09.flac
     7:26.813     128682284 B   cxx   --   ---xx   flac  0.7190  gd1980-09-03s2t10.flac
     9:00.267     155596844 B   cxx   --   ---xx   flac  0.6858  gd1980-09-03s2t11.flac
     3:54.813      67626284 B   cxx   --   ---xx   flac  0.7145  gd1980-09-03s2t12.flac
     4:39.107      80382764 B   cxx   --   ---xx   flac  0.7307  gd1980-09-03s2t13.flac
     0:47.614      13712960 B   cxx   --   ---xx   flac  0.6715  gd1980-09-03s2t14.flac
     5:28.087      94489112 B   cxx   --   ---xx   flac  0.6948  gd1980-09-03s2t15.flac
   165:31.554    2860288828 B                            0.6996  (26 files)

No errors occured.
Show Checksums
ffp
gd1980-09-03s1t01.flac:3d043f873b20f9d162daf78db2ce4538
gd1980-09-03s1t02.flac:db815771d42db7900fed925640a19c9c
gd1980-09-03s1t03.flac:be1adec422d60f8acdc9bfe8b7f4b9a6
gd1980-09-03s1t04.flac:384d48c6036a9cd55eec7fac83e8a05e
gd1980-09-03s1t05.flac:e3cb080f93078371125bc5571d06c83d
gd1980-09-03s1t06.flac:4ff80eccc93bfc49ebb3d809baf66d49
gd1980-09-03s1t07.flac:f65f93a621cb794a64880916f2d3dcca
gd1980-09-03s1t08.flac:96dd79e2c5515a782940b3407fdebeef
gd1980-09-03s1t09.flac:583c89dba949a61839833d1bd6d3feed
gd1980-09-03s1t10.flac:c117b8985043a14f1f362d02d5d929d2
gd1980-09-03s1t11.flac:ff51b04628ab6f201d4ff33aad8dc794
gd1980-09-03s2t01.flac:7c30a122c954deaad51e2315b61c5e05
gd1980-09-03s2t02.flac:46a2c8223a103429d46bb273334a6d3d
gd1980-09-03s2t03.flac:899aae68d7600fbb1d40287638a363de
gd1980-09-03s2t04.flac:773d0b0df483694bc35ab55b8da25794
gd1980-09-03s2t05.flac:15e5153ad3cd20884d3e76039ddae714
gd1980-09-03s2t06.flac:3df12964f12f4f1b69d3a6f831d39da6
gd1980-09-03s2t07.flac:8989874671089979dc9aae87848c51a6
gd1980-09-03s2t08.flac:d8b4a263701a937bf505d25d91e41901
gd1980-09-03s2t09.flac:84e8c8628e6436aa28de5317ef61848a
gd1980-09-03s2t10.flac:e63b70f7582c772c82dbaf4ffe8946c3
gd1980-09-03s2t11.flac:e9bab4034ce82b62b2b3d223ab4eb8de
gd1980-09-03s2t12.flac:504b40bce864e29d3193468ed1726d9a
gd1980-09-03s2t13.flac:f65d3f014758618b6ffc0587a38c9748
gd1980-09-03s2t14.flac:6d203480bc3c734804b9a43beaf0921f
gd1980-09-03s2t15.flac:5670a457f0ef2e67008fa98670d70de8
flac-md5
5790daf5031d689683658c93e89c2e6e *gd1980-09-03s1t01.flac
2a4ad78179af5edcacf53b6124d9d6fb *gd1980-09-03s1t02.flac
e9342e109a69a52b7fe8df097af27ad9 *gd1980-09-03s1t03.flac
c4cc233c7ae9510f8d0195ead00015b3 *gd1980-09-03s1t04.flac
4d94eb3bbf32e0f005b324c96bc90a8b *gd1980-09-03s1t05.flac
1218b3019771356c4a6731cce507d50d *gd1980-09-03s1t06.flac
88c52beac3f5614c8453aba59cef45ac *gd1980-09-03s1t07.flac
4ab3d86cb9a8edec9e6ec3735a67c681 *gd1980-09-03s1t08.flac
914eafe0f697486cef99a605730dcb6e *gd1980-09-03s1t09.flac
cdd89c3f022277bb0cae05ac8b770b6e *gd1980-09-03s1t10.flac
9a9063182e735e4430e91d6ed197967d *gd1980-09-03s1t11.flac
6304fe705a373e64e038992315ac1366 *gd1980-09-03s2t01.flac
1273ceb271fc08fbd31bd043d7e18a8d *gd1980-09-03s2t02.flac
d95711fefd91fd1747dd30942916886d *gd1980-09-03s2t03.flac
4276664ee5ad8c55435921cf745d9907 *gd1980-09-03s2t04.flac
bb860b6c750974fdd8fe3bb6469d1382 *gd1980-09-03s2t05.flac
166eac4c4df4ddead2d4e01966e08e6e *gd1980-09-03s2t06.flac
f4ee77f22ccdaa98f5c446796a6d6032 *gd1980-09-03s2t07.flac
e23457c54c3f5bb47128f45e00d2adde *gd1980-09-03s2t08.flac
ae24b540aca16343698869f7a119b86c *gd1980-09-03s2t09.flac
d18936b13dc7c56b3098f6aeb020c35e *gd1980-09-03s2t10.flac
c4b260fab20f9d08b1e669e80709c132 *gd1980-09-03s2t11.flac
daa1536ca161b1df0a05aab3589b2fa7 *gd1980-09-03s2t12.flac
309604ab15d970898448b09885303f43 *gd1980-09-03s2t13.flac
3c25c4e7079e5f32fd6e90b571102489 *gd1980-09-03s2t14.flac
80a204f9b05985251ae70506243a4d62 *gd1980-09-03s2t15.flac

Comments
Add Comment
Other Sources (comments)
Fixed reseed; FOB by Jim... (6) MAC > ? > CD > EAC > SHNv3;... (0) flac16; (FOB)... (0) flac16:FOB AUD: 2x... (1) flac24; (FOB)... (0) flac24; Recording by... (0) flac24; Source Info:... (0) flac16/48kHz; Source... (0)
Date User Comment
12/20/2009 nfagdtrfb Oops, there is a typo in the source data. This is not FOB.