Browse Collections Artists Sources   Search Dates

Add Show    List Management    Help


Grateful Dead 09/03/80
Springfield Civic Center, Springfield, MA
Comments Add Comment    Source Collectors    Add to Collection    Add to Want List    History
Source # 103169 Other Sources
Entered by Steve Swartz
Checksums ffp , flac-md5
Disc Counts 2 / 3
Media Size
Date Circulated
Date Added
12/06/2009
12/06/2009
Source Summary flac16:FOB AUD: 2x Nakamichi CM300/CP4 shotguns > Nakamichi 550 > Maxell XLII 90's, mics on stand, set up in the arena riser center, end of floor facing the stage. Taped by Tim Friend. Transfer: MAC > Nakamichi DR-2 > Edirol FA-66 > Wavelab > CD-Wave > R8Brain > TLH > FLAC 1644 Tagged. Transfer by Andrew F. 12/2009  
  Archive
Source Information - Download Text | Download Zip
GRATEFUL DEAD
Civic Center
Springfield MA
09-03-1980

16bit/44.1kHz file-set

s1t01 crowd & tuning
s1t02 Mississippi Half Step >
s1t03 Franklin's Tower >
s1t04 Mama Tried >
s1t05 Mexicali Blues
s1t06 Althea >
s1t07 Little Red Rooster
s1t08 Candyman
s1t09 Easy to Love You
s1t10 Let it Grow >
s1t11 Deal

s2t01 crowd & tuning
s2t02 Feel Like a Stranger
s2t03 High Time
s2t04 Lost Sailor >
s2t05 Saint of Circumstance >
s2t06 Jam >
s2t07 Drums >
s2t08 Space >
s2t09 He's Gone >
s2t10 Truckin' >
s2t11 Black Peter >
s2t12 Around & Around >
s2t13 Johnny B. Goode
s2t14 crowd & tuning
s2t15 Encore: Brokedown Palace

FOB AUD: 2x Nakamichi CM300/CP4 shotguns > Nakamichi 550 >
Maxell XLII 90's, mics on stand, set up in the arena riser
center, end of floor facing the stage. Taped by Tim Friend.

Transfer: MAC > Nakamichi DR-2 > Edirol FA-66 > Wavelab >
CD-Wave > R8Brain > TLH > FLAC 1644 Tagged. Transfer by
Andrew F. 12/2009

Note: Patch from ID-12576 in Drums from 1:14 to 1:54.
CDR: D1 s1t01 > s1t11, D2 s2t01 > s2t07, D3 s2t08 > s2t15

92363b66cddacb658af2a06cd5e8611c *gd1980-09-03s1t01.flac
aebc50949ab87c1d53cad0a6aeb208b7 *gd1980-09-03s1t02.flac
57ddfadb856fde983787b22b6fafdd39 *gd1980-09-03s1t03.flac
6ea9569a398d1fd06071f89dc8f632e1 *gd1980-09-03s1t04.flac
e2007f771f2f1b3382ba482e41d74fec *gd1980-09-03s1t05.flac
fde8d51bd42f34718fa0b86df9781c42 *gd1980-09-03s1t06.flac
6586252fff4488644d215adaacb1a78e *gd1980-09-03s1t07.flac
ec68e67bd08e0e7e3f037413bad458fb *gd1980-09-03s1t08.flac
f3c2ccbc50c81a3ae1d0aa4337a7a71d *gd1980-09-03s1t09.flac
a85580b2b2634c9226d01719d16a3d36 *gd1980-09-03s1t10.flac
16dc267c2c0c16ae2d223b8418583a04 *gd1980-09-03s1t11.flac
450d6567b361d20090a7ca0324651ff2 *gd1980-09-03s2t01.flac
8c7df222ff9e369d65ffcfb7ea60a109 *gd1980-09-03s2t02.flac
4d24aab47842797ad9f0a2f3c0cc000d *gd1980-09-03s2t03.flac
1ce49bf4b97254939725fcee06faa2ac *gd1980-09-03s2t04.flac
650ee4894f357c26850b1e4a9449dbd5 *gd1980-09-03s2t05.flac
dde417ac10b07351310a4854515cae2d *gd1980-09-03s2t06.flac
3382103a3ec5785984fdb85f99dd5d4e *gd1980-09-03s2t07.flac
9f910f912aa2c8fd07d5db1e14fdefa1 *gd1980-09-03s2t08.flac
c7c31940b6cdf16d3adfabc0eeda9e3a *gd1980-09-03s2t09.flac
1a88753e0ae1eafbf6ccfa6502649e63 *gd1980-09-03s2t10.flac
91500eb81ce2c9a013a7f8958d720de3 *gd1980-09-03s2t11.flac
f5c14f6a58f7f38dbdf4201b923c9f1e *gd1980-09-03s2t12.flac
7af3db301ef3ea60ef62f1c94c804356 *gd1980-09-03s2t13.flac
80561d2dd10dd28bc34e8aa84e320435 *gd1980-09-03s2t14.flac
0983ba7d35edf4f31da146b21c175d06 *gd1980-09-03s2t15.flac

gd1980-09-03s1t01.flac:a005b4a1cfcbce791d0d94d274330851
gd1980-09-03s1t02.flac:4f39b4e960b5eca2cea70d2f127d0cd8
gd1980-09-03s1t03.flac:cc308c5e35d11065f9a801bb1c42679f
gd1980-09-03s1t04.flac:eaf75f9fb4ad4e34d8e42c491f7629d6
gd1980-09-03s1t05.flac:4f74d440b4e0b28ff0cab67ff26ce9be
gd1980-09-03s1t06.flac:48531b76bbc3655df8598fcec0766e82
gd1980-09-03s1t07.flac:1ff48266967df6db9867ecba724e3395
gd1980-09-03s1t08.flac:95919969be25f064d915a1e2c252b5ba
gd1980-09-03s1t09.flac:1638002dac69032e1610d987f8dec033
gd1980-09-03s1t10.flac:01cb0108ad5bc4a8c0e167a38ed36645
gd1980-09-03s1t11.flac:e6b9cca772b634137efb780eec915436
gd1980-09-03s2t01.flac:cb769da8a9a2bb05c6e69befe1db02d2
gd1980-09-03s2t02.flac:85f00def8235b0b51f4a0d4e3c39e9c6
gd1980-09-03s2t03.flac:0cb3f4721395fccc785cbe42aa29d6f7
gd1980-09-03s2t04.flac:b6319886630767532f4813b033dbdb28
gd1980-09-03s2t05.flac:3333484962415cefb8443990c0da79ad
gd1980-09-03s2t06.flac:f0807777f1c1a75e385d7b9d11e2cea9
gd1980-09-03s2t07.flac:fb9845ab9c41e406d280d925baa02dc1
gd1980-09-03s2t08.flac:4715e6535b9bd8751d1441996dc02b42
gd1980-09-03s2t09.flac:c0fdcd7c400b993e26e27fdc9f7d48cf
gd1980-09-03s2t10.flac:71305b6dd891fea998ef8be39f1e87f2
gd1980-09-03s2t11.flac:ab85229ffb7f5a487284ee74ae52bd46
gd1980-09-03s2t12.flac:ef4d4996097a94d181f1855b9b34ac8e
gd1980-09-03s2t13.flac:5d02274f4dbf1ffe9145f6d1b1a1a36a
gd1980-09-03s2t14.flac:2091cc993aff9eb2d688b9d06eba9ef1
gd1980-09-03s2t15.flac:430870ba49b7ab5cd3bcae37a35ff269

    length     expanded size    cdr  WAVE problems  fmt   ratio  filename
     0:50.23        8874140 B   ---   --   ---xx   flac  0.5027  gd1980-09-03s1t01.flac
     8:11.15       86647724 B   ---   --   ---xx   flac  0.5716  gd1980-09-03s1t02.flac
     9:07.01       96493196 B   ---   --   ---xx   flac  0.5751  gd1980-09-03s1t03.flac
     2:25.34       25658012 B   ---   --   ---xx   flac  0.5867  gd1980-09-03s1t04.flac
     5:39.37       59886668 B   ---   --   ---xx   flac  0.5881  gd1980-09-03s1t05.flac
     7:53.59       83576012 B   ---   --   ---xx   flac  0.5699  gd1980-09-03s1t06.flac
     8:10.23       86490140 B   ---   --   ---xx   flac  0.5719  gd1980-09-03s1t07.flac
     8:21.50       88494044 B   ---   --   ---xx   flac  0.5677  gd1980-09-03s1t08.flac
     4:05.00       43218044 B   ---   --   ---xx   flac  0.5894  gd1980-09-03s1t09.flac
    10:45.41      113874476 B   ---   --   ---xx   flac  0.5935  gd1980-09-03s1t10.flac
     4:33.52       48279548 B   ---   --   ---xx   flac  0.5991  gd1980-09-03s1t11.flac
     2:09.05       22767404 B   ---   --   ---xx   flac  0.5223  gd1980-09-03s2t01.flac
    11:38.16      123164876 B   ---   --   ---xx   flac  0.5796  gd1980-09-03s2t02.flac
     8:35.05       90857804 B   ---   --   ---xx   flac  0.5507  gd1980-09-03s2t03.flac
     6:50.55       72453404 B   ---   --   ---xx   flac  0.5548  gd1980-09-03s2t04.flac
     6:06.46       64670636 B   ---   --   ---xx   flac  0.5949  gd1980-09-03s2t05.flac
     5:26.35       57588764 B   ---   --   ---xx   flac  0.5326  gd1980-09-03s2t06.flac
    10:35.49      112129292 B   ---   --   ---xx   flac  0.5077  gd1980-09-03s2t07.flac
     2:28.32       26182508 B   ---   --   ---xx   flac  0.5222  gd1980-09-03s2t08.flac
    10:21.10      109567964 B   ---   --   ---xx   flac  0.5558  gd1980-09-03s2t09.flac
     7:26.61       78817916 B   ---   --   ---xx   flac  0.5990  gd1980-09-03s2t10.flac
     9:00.20       95303084 B   ---   --   ---xx   flac  0.5453  gd1980-09-03s2t11.flac
     3:54.61       41421116 B   ---   --   ---xx   flac  0.5916  gd1980-09-03s2t12.flac
     4:39.08       49234460 B   ---   --   ---xx   flac  0.6181  gd1980-09-03s2t13.flac
     0:47.47        8401388 B   ---   --   ---xx   flac  0.5223  gd1980-09-03s2t14.flac
     5:28.07       57875708 B   ---   --   ---xx   flac  0.5612  gd1980-09-03s2t15.flac
   165:31.42     1751928328 B                            0.5675  (26 files)

No errors occured.
Show Checksums
ffp
gd1980-09-03s1t01.flac:a005b4a1cfcbce791d0d94d274330851
gd1980-09-03s1t02.flac:4f39b4e960b5eca2cea70d2f127d0cd8
gd1980-09-03s1t03.flac:cc308c5e35d11065f9a801bb1c42679f
gd1980-09-03s1t04.flac:eaf75f9fb4ad4e34d8e42c491f7629d6
gd1980-09-03s1t05.flac:4f74d440b4e0b28ff0cab67ff26ce9be
gd1980-09-03s1t06.flac:48531b76bbc3655df8598fcec0766e82
gd1980-09-03s1t07.flac:1ff48266967df6db9867ecba724e3395
gd1980-09-03s1t08.flac:95919969be25f064d915a1e2c252b5ba
gd1980-09-03s1t09.flac:1638002dac69032e1610d987f8dec033
gd1980-09-03s1t10.flac:01cb0108ad5bc4a8c0e167a38ed36645
gd1980-09-03s1t11.flac:e6b9cca772b634137efb780eec915436
gd1980-09-03s2t01.flac:cb769da8a9a2bb05c6e69befe1db02d2
gd1980-09-03s2t02.flac:85f00def8235b0b51f4a0d4e3c39e9c6
gd1980-09-03s2t03.flac:0cb3f4721395fccc785cbe42aa29d6f7
gd1980-09-03s2t04.flac:b6319886630767532f4813b033dbdb28
gd1980-09-03s2t05.flac:3333484962415cefb8443990c0da79ad
gd1980-09-03s2t06.flac:f0807777f1c1a75e385d7b9d11e2cea9
gd1980-09-03s2t07.flac:fb9845ab9c41e406d280d925baa02dc1
gd1980-09-03s2t08.flac:4715e6535b9bd8751d1441996dc02b42
gd1980-09-03s2t09.flac:c0fdcd7c400b993e26e27fdc9f7d48cf
gd1980-09-03s2t10.flac:71305b6dd891fea998ef8be39f1e87f2
gd1980-09-03s2t11.flac:ab85229ffb7f5a487284ee74ae52bd46
gd1980-09-03s2t12.flac:ef4d4996097a94d181f1855b9b34ac8e
gd1980-09-03s2t13.flac:5d02274f4dbf1ffe9145f6d1b1a1a36a
gd1980-09-03s2t14.flac:2091cc993aff9eb2d688b9d06eba9ef1
gd1980-09-03s2t15.flac:430870ba49b7ab5cd3bcae37a35ff269
flac-md5
92363b66cddacb658af2a06cd5e8611c *gd1980-09-03s1t01.flac
aebc50949ab87c1d53cad0a6aeb208b7 *gd1980-09-03s1t02.flac
57ddfadb856fde983787b22b6fafdd39 *gd1980-09-03s1t03.flac
6ea9569a398d1fd06071f89dc8f632e1 *gd1980-09-03s1t04.flac
e2007f771f2f1b3382ba482e41d74fec *gd1980-09-03s1t05.flac
fde8d51bd42f34718fa0b86df9781c42 *gd1980-09-03s1t06.flac
6586252fff4488644d215adaacb1a78e *gd1980-09-03s1t07.flac
ec68e67bd08e0e7e3f037413bad458fb *gd1980-09-03s1t08.flac
f3c2ccbc50c81a3ae1d0aa4337a7a71d *gd1980-09-03s1t09.flac
a85580b2b2634c9226d01719d16a3d36 *gd1980-09-03s1t10.flac
16dc267c2c0c16ae2d223b8418583a04 *gd1980-09-03s1t11.flac
450d6567b361d20090a7ca0324651ff2 *gd1980-09-03s2t01.flac
8c7df222ff9e369d65ffcfb7ea60a109 *gd1980-09-03s2t02.flac
4d24aab47842797ad9f0a2f3c0cc000d *gd1980-09-03s2t03.flac
1ce49bf4b97254939725fcee06faa2ac *gd1980-09-03s2t04.flac
650ee4894f357c26850b1e4a9449dbd5 *gd1980-09-03s2t05.flac
dde417ac10b07351310a4854515cae2d *gd1980-09-03s2t06.flac
3382103a3ec5785984fdb85f99dd5d4e *gd1980-09-03s2t07.flac
9f910f912aa2c8fd07d5db1e14fdefa1 *gd1980-09-03s2t08.flac
c7c31940b6cdf16d3adfabc0eeda9e3a *gd1980-09-03s2t09.flac
1a88753e0ae1eafbf6ccfa6502649e63 *gd1980-09-03s2t10.flac
91500eb81ce2c9a013a7f8958d720de3 *gd1980-09-03s2t11.flac
f5c14f6a58f7f38dbdf4201b923c9f1e *gd1980-09-03s2t12.flac
7af3db301ef3ea60ef62f1c94c804356 *gd1980-09-03s2t13.flac
80561d2dd10dd28bc34e8aa84e320435 *gd1980-09-03s2t14.flac
0983ba7d35edf4f31da146b21c175d06 *gd1980-09-03s2t15.flac

Comments
Add Comment
Other Sources (comments)
Fixed reseed; FOB by Jim... (6) MAC > ? > CD > EAC > SHNv3;... (0) flac16; (FOB)... (0) flac24;FOB AUD: 2x... (1) flac24; (FOB)... (0) flac24; Recording by... (0) flac24; Source Info:... (0) flac16/48kHz; Source... (0)
Date User Comment
12/20/2009 nfagdtrfb Oops, there is a typo in the source data. This is not FOB.