Browse Collections Artists Sources   Search Dates

Add Show    List Management    Help


Phish 12/04/09
Madison Square Garden, New York, NY
Comments Add Comment    Source Collectors    Add to Collection    Add to Want List    History
Source # 103171 Other Sources
Entered by Jason Sobel
Checksums 16bit-FFP , 24bit-FFP
Disc Counts 2 / 3
Media Size
Date Circulated
Date Added
12/05/2009
12/06/2009
Source Summary Schoeps MK41 > KC5 > CMC6 > Sonosax SX-M2 > Apogee Mini-me > Oade Concert Mod. Edirol R-44 (@ 24 bit / 96 kHz); SD-HC Card > USB > Soundforge 8 (tracking, resample/dither to 16bit/44.1khz) > FLAC (Level 8); Taped & Transferred by Andy Murray (NOTE: both 16 bit & 24 bit versions are available) 
Source Information - Download Text | Download Zip
-----------------------------------------
----    16 bit / 44.1 kHz version    ----
-----------------------------------------

Phish
2009-12-04
Madison Square Garden
NYC, New York

Recorded and transferred by Andy Murray

From Taper's Section DINa Sec.10 row c seat 1
Schoeps MK41>KC5>CMC6>Sonosax SX-M2>Apogee Mini-me(aes [email protected] bit/96khz)>COAX>Oade Concert Mod. Edirol R-44
SD-HC Card>USB>Soundforge 8(tracking,set 1 normalizing,resample/dither to 16bit/44.1khz)>FLAC (sector alignment,Level 8 )

3 Discs
2 Sets

Thanks to Rich Revere for the use of the Oade Mod. R-44
and to Dave Flaschner for the MK41s

Disc 1:
Set 1:

Intro
Heavy Things
Possum
Wilson
Kill Devil Falls
Glide
46 Days
Bouncing Around The Room
Reba
Dinner and a Movie
Guyute
Maze

Disc 2:
Set 1 cont...

First Tube

Set 2:

Intro
Scents And Subtle Sounds
Rock & Roll >
Seven Below >
Twist
Mike's Song >
I Am Hydrogen >
Weekapaug Groove
The Horse >
Silent in the Morning

Disc 3:
Set 2 cont...

You Enjoy Myself

Encore:

Shine A Light

length expanded size cdr WAVE problems filename
0:53.56 9480956 --- -- ----- phish2009-12-04_mk41_1644_d1t01.wav
5:48.28 61453100 --- -- ----- phish2009-12-04_mk41_1644_d1t02.wav
9:04.17 96001628 --- -- ----- phish2009-12-04_mk41_1644_d1t03.wav
4:30.31 47700956 --- -- ----- phish2009-12-04_mk41_1644_d1t04.wav
7:59.11 84521516 --- -- ----- phish2009-12-04_mk41_1644_d1t05.wav
4:02.52 42811148 --- -- ----- phish2009-12-04_mk41_1644_d1t06.wav
7:01.18 74306780 --- -- ----- phish2009-12-04_mk41_1644_d1t07.wav
3:39.58 38768060 --- -- ----- phish2009-12-04_mk41_1644_d1t08.wav
10:35.08 112032860 --- -- ----- phish2009-12-04_mk41_1644_d1t09.wav
3:39.15 38666924 --- -- ----- phish2009-12-04_mk41_1644_d1t10.wav
10:54.42 115464428 --- -- ----- phish2009-12-04_mk41_1644_d1t11.wav
9:36.52 101728748 --- -- ----- phish2009-12-04_mk41_1644_d1t12.wav
8:45.50 92727644 --- -- ----- phish2009-12-04_mk41_1644_d2t01.wav
0:45.04 7947452 --- -- ----- phish2009-12-04_mk41_1644_d2t02.wav
6:47.20 71841884 --- -- ----- phish2009-12-04_mk41_1644_d2t03.wav
10:53.51 115309196 --- -- ----- phish2009-12-04_mk41_1644_d2t04.wav
10:44.62 113747468 --- -- ----- phish2009-12-04_mk41_1644_d2t05.wav
8:08.60 86224364 --- -- ----- phish2009-12-04_mk41_1644_d2t06.wav
7:50.24 82964492 --- -- ----- phish2009-12-04_mk41_1644_d2t07.wav
2:32.02 26817548 --- -- ----- phish2009-12-04_mk41_1644_d2t08.wav
6:19.69 67017932 --- -- ----- phish2009-12-04_mk41_1644_d2t09.wav
1:10.27 12411548 --- -- ----- phish2009-12-04_mk41_1644_d2t10.wav
5:09.74 54681692 --- -- ----- phish2009-12-04_mk41_1644_d2t11.wav
23:15.46 246186236 --- -- ----- phish2009-12-04_mk41_1644_d3t01.wav
6:01.01 63682796 --- -- ----- phish2009-12-04_mk41_1644_d3t02.wav
176:09.53 1864497356 B (totals for 25 files, 1.0000 overall compression ratio)






---------------------------------------
----    24 bit / 96 kHz version    ----
---------------------------------------

Phish
2009-12-04
Madison Square Garden
NYC, New York

Recorded and transferred by Andy Murray

From Taper's Section DINa Sec.10 row c seat 1
Schoeps MK41>KC5>CMC6>Sonosax SX-M2>Apogee Mini-me(aes [email protected] bit/96khz)>COAX>Oade Concert Mod. Edirol R-44
SD-HC Card>USB>Soundforge 8(tracking,set 1 normalizing)>FLAC Level 8

2 Discs
2 Sets

Thanks to Rich Revere for the use of the Oade Mod. R-44
and to Dave Flaschner fo use of the mk41s.

Disc 1:
Set 1:

Intro
Heavy Things
Possum
Wilson
Kill Devil Falls
Glide
46 Days
Bouncing Around The Room
Reba
Dinner and a Movie
Guyute
Maze
First Tube

Disc 2:
Set 2:

Intro
Scents And Subtle Sounds
Rock & Roll >
Seven Below >
Twist
Mike's Song >
I Am Hydrogen >
Weekapaug Groove
The Horse >
Silent in the Morning
You Enjoy Myself

Encore:

Shine A Light
Show Checksums
16bit-FFP
phish2009-12-04_mk41_1644_d1t01.flac:5081696a6d8777b96ac021cf83852cc0
phish2009-12-04_mk41_1644_d1t02.flac:b97434ee67e6124da7dda6bbb5361f05
phish2009-12-04_mk41_1644_d1t03.flac:bfcec41e3788cea0cd3135216415e5a1
phish2009-12-04_mk41_1644_d1t04.flac:5e798c5a65e93a30af9de03cc7c650c3
phish2009-12-04_mk41_1644_d1t05.flac:72d70c4ad2dd4e64fa60fc15e017ca2f
phish2009-12-04_mk41_1644_d1t06.flac:4278d201fb184d679fb2fc696efcf3b2
phish2009-12-04_mk41_1644_d1t07.flac:5b72f04ed39adc262212aa3c0979b49f
phish2009-12-04_mk41_1644_d1t08.flac:677109b73515cde9d170103069ab7809
phish2009-12-04_mk41_1644_d1t09.flac:a84ba6847ecf6228da6b4fe442ef55c9
phish2009-12-04_mk41_1644_d1t10.flac:cdc984376db11c82171d22679169ffbc
phish2009-12-04_mk41_1644_d1t11.flac:19c680488b579cf6bc71ce4dcef9eccd
phish2009-12-04_mk41_1644_d1t12.flac:c03c351907b3d63f08349fc4e92c50a5
phish2009-12-04_mk41_1644_d2t01.flac:e82ee3aa6472c15c46eba80c6a0f01aa
phish2009-12-04_mk41_1644_d2t02.flac:a1dbb4429f34f498a0f94b3d70896fe7
phish2009-12-04_mk41_1644_d2t03.flac:d43dc4f732672498d5da67804ef9a217
phish2009-12-04_mk41_1644_d2t04.flac:70e63a068cca62500bee5a25d945043b
phish2009-12-04_mk41_1644_d2t05.flac:4827e1e632c30c91c097b45f9de59378
phish2009-12-04_mk41_1644_d2t06.flac:c3e640956727fbfc35429d2b9c8b5292
phish2009-12-04_mk41_1644_d2t07.flac:ef91d223df7500780026d6aafac37a97
phish2009-12-04_mk41_1644_d2t08.flac:6e84fbba297997febc19826174cf4b8b
phish2009-12-04_mk41_1644_d2t09.flac:d344316a265dc2f5745e6a914351a476
phish2009-12-04_mk41_1644_d2t10.flac:469ed3dc63a70b579543e9d81cc5adff
phish2009-12-04_mk41_1644_d2t11.flac:c7827e292882665266bc0d8c23c42278
phish2009-12-04_mk41_1644_d3t01.flac:9e498d0dc0bcc9462defa5ee31ee9c12
phish2009-12-04_mk41_1644_d3t02.flac:2644670895c9b0d12028af2a8c72dd1b
24bit-FFP
phish2009-12-04_mk41_2496_d1t01.flac:1495bd668373b78c4f61acbabdece9f2
phish2009-12-04_mk41_2496_d1t02.flac:cde076f201aa38e11a5ed9f6d92a8b35
phish2009-12-04_mk41_2496_d1t03.flac:e34618212053ff3d55bd049a345026c2
phish2009-12-04_mk41_2496_d1t04.flac:40a385f0bc71da7c62882ab97dc6bc98
phish2009-12-04_mk41_2496_d1t05.flac:82216c91fc895325140b7ccf9377d310
phish2009-12-04_mk41_2496_d1t06.flac:d9ff1d0a64bc14c7e97108512bb54614
phish2009-12-04_mk41_2496_d1t07.flac:7675f23c19b25ca68cf1abbf03f49ea3
phish2009-12-04_mk41_2496_d1t08.flac:99b2f4f9557492f825b8e75bb6799b27
phish2009-12-04_mk41_2496_d1t09.flac:7a613b2d273c2ad015c2d10821890c7a
phish2009-12-04_mk41_2496_d1t10.flac:33dbc9c7aeeed866813f75604a13ff03
phish2009-12-04_mk41_2496_d1t11.flac:aea742a4f19bc681e23d89f5908d977f
phish2009-12-04_mk41_2496_d1t12.flac:83eece054a56ae6fed8850877d51b8ee
phish2009-12-04_mk41_2496_d1t13.flac:55c25ebb0b9ef1b9c0a0670763bc73dc
phish2009-12-04_mk41_2496_d2t01.flac:7154816b9583d2bc5f54a9aa0afe6795
phish2009-12-04_mk41_2496_d2t02.flac:2b9bea13e4eea7428d88883f939f2a50
phish2009-12-04_mk41_2496_d2t03.flac:c4109e9d341625389bbb5d451cfb5647
phish2009-12-04_mk41_2496_d2t04.flac:8af7ceaa563ec5fdad228e99fa808434
phish2009-12-04_mk41_2496_d2t05.flac:c79cd14e86820f90c0f456eb3b1d7a23
phish2009-12-04_mk41_2496_d2t06.flac:3b0dd0c3383a6580ca75526a841586dc
phish2009-12-04_mk41_2496_d2t07.flac:6421af86af9f7712bf4c816474321c34
phish2009-12-04_mk41_2496_d2t08.flac:5299ff95542d69e04dba6e06f5ae3a06
phish2009-12-04_mk41_2496_d2t09.flac:3f9eadfc8f1f30773b716fdf27dc3dac
phish2009-12-04_mk41_2496_d2t10.flac:aa6517ee702284b17fdba7234ab68ff7
phish2009-12-04_mk41_2496_d2t11.flac:cd2332ca64b378d77e8d397f58853860
phish2009-12-04_mk41_2496_d2t12.flac:2720cfc2abd79e804b2ab9617c0242db

Comments
Add Comment
Other Sources (comments)
Schoeps mk41 > KCY >... (0) Sennheiser MD441U > Edirol... (0) Neumann TLM-170... (0) Schoeps mk41v's > kc5 >... (0) Schoeps MK4 > KC5 > CMC6 >... (0) Neumann KM140s > Lunatec V2... (0) Microtech Gefell M210's >... (0) Schoeps mk41 > KC5 > M222 >... (0)
Date User Comment