Browse Collections Artists Sources   Search Dates

Add Show    List Management    Help


Grateful Dead 05/15/80
Nassau Coliseum, Uniondale, NY
Comments Add Comment    Source Collectors    Add to Collection    Add to Want List    History
Source # 103182 Other Sources
Entered by Gary Field
Checksums ffp , flac-md5
Disc Counts 2 / 3
Media Size
Date Circulated
Date Added
12/06/2009
12/06/2009
Source Summary flac16;Analog Lineage: 2 x Nakamichi CM700 => Sony TC-D5M >> MAC Analog Sound Preservation: MAC >> Nakamichi DR-1 => Grace Design Lunatec V3 >> Korg MR-1000 >> DSF [1-bit 5 -6448 MHz Stereo] >> Korg MR-1000 => Korg AudioGate >> WAV [24/96] >> 16/44.1 
  Archive
Source Information - Download Text | Download Zip
MOTB Release: 0097 16/44.1
Release Date: 2009-09-20
Band: Grateful Dead
Date: 1980-05-04 (Thursday)
Venue: Nassau Veterans Memorial Coliseum
Location: Uniondale, N.Y
Analog Audience Source: FOB Master Cassettes (MAC)
Medium Stock Brands: MAC = 2 x Maxell XLII C90
Analog Lineage: 2 x Nakamichi CM700 => Sony TC-D5M >> MAC
Analog Sound Preservation: MAC >> Nakamichi DR-1 => Grace Design Lunatec V3 >> Korg MR-1000 >> DSF [1-bit 5 -6448 MHz Stereo] >> Korg MR-1000 => Korg AudioGate >> WAV [24/96] >> 16/44.1
Taped By: Barry Glassberg
Transfer By: Adam Egert
Mastering By: Adam Egert

CD ONE:
Set 1:
d1t01 Jack Straw >
d1t02 Franklin's Tower
d1t03 Cassidy
d1t04 They Love Each Other
d1t05 Lazy Lightning >
d1t06 Supplication
d1t07 Peggy-O
d1t08 Far From Me
d1t09 Feel Like A Stranger >
d1t10 Deal

CD TWO:
Set 2:
d2t01 Althea
d2t02 Lost Sailor >
d2t03 St. Of Circumstance >
d2t04 Terrapin Station >
d2t05 Playing In The Band >
d2t06 Uncle John's Band >
d2t07 Drums >


CD THREE:

(set 2 cont'd)
d3t08 Space >
d3t09 Not Fade Away >
d3t10 Goin' Down The Road Feeling Bad >
d3t11 Good Lovin'

Encore:
d3t12 Alabama Getaway



Notes:
5 seconds of Uncle Johns Band Patched with SHNID: 34721.

shntool 3.0.4
Copyright (C) 2000-2007 Jason Jordan

    length     expanded size    cdr  WAVE problems  fmt   ratio  filename
     8:25.53       89206700 B   ---   --   ---xx   flac  0.5886  gd1980-05-15.fob.glassberg.motb.d1t01.flac
    13:21.16      141334076 B   ---   --   ---xx   flac  0.6103  gd1980-05-15.fob.glassberg.motb.d1t02.flac
     5:13.00       55213244 B   ---   --   ---xx   flac  0.6038  gd1980-05-15.fob.glassberg.motb.d1t03.flac
     8:02.00       85024844 B   ---   --   ---xx   flac  0.5730  gd1980-05-15.fob.glassberg.motb.d1t04.flac
     3:55.22       41505788 B   ---   --   ---xx   flac  0.6072  gd1980-05-15.fob.glassberg.motb.d1t05.flac
     6:31.01       68974796 B   ---   --   ---xx   flac  0.6094  gd1980-05-15.fob.glassberg.motb.d1t06.flac
     8:15.55       87447404 B   ---   --   ---xx   flac  0.5814  gd1980-05-15.fob.glassberg.motb.d1t07.flac
     4:53.04       51694652 B   ---   --   ---xx   flac  0.6169  gd1980-05-15.fob.glassberg.motb.d1t08.flac
     9:01.13       95463020 B   ---   --   ---xx   flac  0.6134  gd1980-05-15.fob.glassberg.motb.d1t09.flac
     5:13.36       55297916 B   ---   --   ---xx   flac  0.6244  gd1980-05-15.fob.glassberg.motb.d1t10.flac
    10:49.30      114554204 B   ---   --   ---xx   flac  0.5888  gd1980-05-15.fob.glassberg.motb.d2t01.flac
     8:32.11       90342716 B   ---   --   ---xx   flac  0.5896  gd1980-05-15.fob.glassberg.motb.d2t02.flac
     3:48.22       40270988 B   ---   --   ---xx   flac  0.6334  gd1980-05-15.fob.glassberg.motb.d2t03.flac
    12:29.50      132241244 B   ---   --   ---xx   flac  0.5856  gd1980-05-15.fob.glassberg.motb.d2t04.flac
     8:05.56       85685756 B   ---   --   ---xx   flac  0.6081  gd1980-05-15.fob.glassberg.motb.d2t05.flac
     8:34.32       90744908 B   ---   --   ---xx   flac  0.6398  gd1980-05-15.fob.glassberg.motb.d2t06.flac
     7:01.18       74306780 B   ---   --   ---xx   flac  0.5523  gd1980-05-15.fob.glassberg.motb.d2t07.flac
     2:26.30       25825004 B   ---   --   ---xx   flac  0.5976  gd1980-05-15.fob.glassberg.motb.d3t01.flac
     5:14.68       55549580 B   ---   --   ---xx   flac  0.6186  gd1980-05-15.fob.glassberg.motb.d3t02.flac
     6:47.72       71964188 B   ---   --   ---xx   flac  0.6254  gd1980-05-15.fob.glassberg.motb.d3t03.flac
     7:27.25       78909644 B   ---   --   ---xx   flac  0.6213  gd1980-05-15.fob.glassberg.motb.d3t04.flac
     4:56.45       52320284 B   ---   --   ---xx   flac  0.6289  gd1980-05-15.fob.glassberg.motb.d3t05.flac
   159:05.59     1683877736 B                            0.6031  (22 files)
Show Checksums
ffp
gd1980-05-15.fob.glassberg.motb.d1t01.flac:02dee48a524194ca3dc548a56451f467
gd1980-05-15.fob.glassberg.motb.d1t02.flac:af33bbc3b9e1b50be049c90c99903735
gd1980-05-15.fob.glassberg.motb.d1t03.flac:1f51aa3808e9394a1b26296b17a75640
gd1980-05-15.fob.glassberg.motb.d1t04.flac:4a267661c62e722e95b39ee8703ca581
gd1980-05-15.fob.glassberg.motb.d1t05.flac:eb1336417f3b4b59d2146318173e5d55
gd1980-05-15.fob.glassberg.motb.d1t06.flac:a2f583b16c0590cb3791ce0469401d59
gd1980-05-15.fob.glassberg.motb.d1t07.flac:dcc408c7910de63287c7d21625c8a252
gd1980-05-15.fob.glassberg.motb.d1t08.flac:58d67dbc170493baba86a5dfeb1df59b
gd1980-05-15.fob.glassberg.motb.d1t09.flac:3d64a726cce5b732774d1e81868b9ca8
gd1980-05-15.fob.glassberg.motb.d1t10.flac:971aa46f0a247f1897a5f6c7bfae83b5
gd1980-05-15.fob.glassberg.motb.d2t01.flac:0c780b69269394a1c557ee67643ac231
gd1980-05-15.fob.glassberg.motb.d2t02.flac:cb70ee0d7e3d233b0445c589d316ed3f
gd1980-05-15.fob.glassberg.motb.d2t03.flac:9c6b75c05104b5a1206d6c4751286f4c
gd1980-05-15.fob.glassberg.motb.d2t04.flac:57f35ea82590a16f7a1e9445e320c433
gd1980-05-15.fob.glassberg.motb.d2t05.flac:cd0610c1727bb5a71ebecdc21b56e13f
gd1980-05-15.fob.glassberg.motb.d2t06.flac:15c3863b8993c5e18467efec489fa9e6
gd1980-05-15.fob.glassberg.motb.d2t07.flac:20c62184eb200ed10cbe999f9393d2b0
gd1980-05-15.fob.glassberg.motb.d3t01.flac:2ff79ab0efe4492a38552b838bd871d2
gd1980-05-15.fob.glassberg.motb.d3t02.flac:ba4dad8a46cf1dd1397b72f9108a44cf
gd1980-05-15.fob.glassberg.motb.d3t03.flac:82f3cc6b2b601bc179da48208681d0af
gd1980-05-15.fob.glassberg.motb.d3t04.flac:7d315ddcb7d044e9f89909d75fb58b8e
gd1980-05-15.fob.glassberg.motb.d3t05.flac:016898d0cab50ba51041a9163d6d8cac
flac-md5
94dc0834c2778eb5895d4503b5378150 *gd1980-05-15.fob.glassberg.motb.d1t01.flac
0a11a1d521707aa8d2ae73d5ba5afa11 *gd1980-05-15.fob.glassberg.motb.d1t02.flac
6857cac2fc2406c45dc5baaed812923e *gd1980-05-15.fob.glassberg.motb.d1t03.flac
dcbaf06fc64a52123560fa75d8a572e8 *gd1980-05-15.fob.glassberg.motb.d1t04.flac
c1e3992ac9fc514f35da79eeb44fdc7d *gd1980-05-15.fob.glassberg.motb.d1t05.flac
a8679a2ee14b9e5f4d901278e15d3725 *gd1980-05-15.fob.glassberg.motb.d1t06.flac
cfc6d8ba6f9164176b578dd6c26a0524 *gd1980-05-15.fob.glassberg.motb.d1t07.flac
05959b9fa95edc8ee0305b8aeecf3b95 *gd1980-05-15.fob.glassberg.motb.d1t08.flac
bfe5ac1a1be9d61ee7907a8d280db870 *gd1980-05-15.fob.glassberg.motb.d1t09.flac
7bf637f7e9928b7a3b69b216f49a3e44 *gd1980-05-15.fob.glassberg.motb.d1t10.flac
f09448dcf67e67f58f2b665182d18fa9 *gd1980-05-15.fob.glassberg.motb.d2t01.flac
3ced85a756cd521ff2974b77fc5bebfe *gd1980-05-15.fob.glassberg.motb.d2t02.flac
912d2ba33a16718cf9bf5a38ee9738c3 *gd1980-05-15.fob.glassberg.motb.d2t03.flac
d02d1991667257f1fc688d9b502d771a *gd1980-05-15.fob.glassberg.motb.d2t04.flac
b6b61cf5c0e2739d429fa3632dfbc1b8 *gd1980-05-15.fob.glassberg.motb.d2t05.flac
64cc2f5512d3f8917164a738f59b1a68 *gd1980-05-15.fob.glassberg.motb.d2t06.flac
b40f4b0d5e28f93e83400a2999f6b709 *gd1980-05-15.fob.glassberg.motb.d2t07.flac
20070dd374021379e0651667393063a4 *gd1980-05-15.fob.glassberg.motb.d3t01.flac
33cd5931e4a32a7a61035c91623a9197 *gd1980-05-15.fob.glassberg.motb.d3t02.flac
415dfb63169855a77095c020ab6e85f9 *gd1980-05-15.fob.glassberg.motb.d3t03.flac
8f1bce3093b2377c3f33ac22d9fbe275 *gd1980-05-15.fob.glassberg.motb.d3t04.flac
40ce8d318b5c9b6236a2fa2bfab8b67f *gd1980-05-15.fob.glassberg.motb.d3t05.flac

Comments
Add Comment
Other Sources (comments)
AUD> MC> DAT> CDR; via Alan... (0) flac16; AUD Source:... (0) flac16; Recording... (0) flac24;Analog... (1) flac24; Recording by... (0) flac16; 2 Source... (0)
Date User Comment