Browse Collections Artists Sources   Search Dates

Add Show    List Management    Help


Grateful Dead 01/18/79
Providence Civic Center, Providence, RI
Comments Add Comment    Source Collectors    Add to Collection    Add to Want List    History
Source # 103186 Other Sources
Entered by Gary Field
Checksums flac-md5 , ffp
Disc Counts 2 / 3
Media Size Compressed: 1.04 GB (1115308137 bytes)
Date Circulated
Date Added
12/07/2009
12/06/2009
Source Summary flac16; SBD -> Cassette Master (Sony D5) -> Cassette (Sony D5); Transfer Info: Cassette (Nakamichi DR-1) -> Sound Devices 744T (24bit/96k) -> Adobe Audition v1.5 -> Samplitude Professional v10.22 -> FLAC/16; All Mastering By Charlie Miller; This is an upgrade/fix to source ID 102444 
  Archive
Source Information - Download Text | Download Zip
Grateful Dead - January 18, 1979
Civic Center - Providence, RI

Recording Info:
SBD -> Cassette Master (Sony D5) -> Cassette (Sony D5)

Transfer Info:
Cassette (Nakamichi DR-1) -> Sound Devices 744T (24bit/96k) ->
Adobe Audition v1.5 -> Samplitude Professional v10.22 -> FLAC/16
(3 Discs Audio / 2 Discs FLAC)

All Mastering By Charlie Miller
[email protected]
December 4, 2009

Patch Info:
(FOB) Nakamichi 300/CP1 -> Cassette Master (shnid=100210) supplies:
Promised Land (0:00 - 0:23)
Jack-A-Roe (3:51 - 4:24)
Bertha (4:50 - end of track)
Good Lovin' (0:00 - 0:09)
He's Gone (6:06 - 6:31)
U.S. Blues (complete track)

Notes:
-- Set 2 is seamless
-- This source has a patch added to Jack-A-Roe
-- Thanks to David Young and Rich Rothenberg for the tapes
-- Thanks to Joe B. Jones for his help with the pitch correction

Set 1:
d1t01 - Promised Land
d1t02 - They Love Each Other
d1t03 - Mama Tried ->
d1t04 - Mexicali Blues
d1t05 - Friend Of The Devil
d1t06 - Cassidy
d1t07 - Jack-A-Roe
d1t08 - Looks Like Rain
d1t09 - Ramble On Rose
d1t10 - New Minglewood Blues
d1t11 - Deal

Set 2:
d2t01 - I Need A Miracle ->
d2t02 - Bertha ->
d2t03 - Good Lovin'
d2t04 - From The Heart Of Me
d2t05 - Ship Of Fools
d3t01 - He's Gone ->
d3t02 - Truckin' ->
d3t03 - The Other One ->
d3t04 - Wharf Rat ->
d3t05 - Around And Around

Encore:
d3t06 - U.S. Blues


SHNTOOL OUTPUT:
    length     expanded size    cdr  WAVE problems  fmt   ratio  filename
     4:58.16       52604876 B   ---   --   -----    wav  1.0000  gd79-01-18d1t01.wav
     9:09.65       96996524 B   ---   --   -----    wav  1.0000  gd79-01-18d1t02.wav
     2:45.68       29265980 B   ---   --   -----    wav  1.0000  gd79-01-18d1t03.wav
     4:31.23       47858540 B   ---   --   -----    wav  1.0000  gd79-01-18d1t04.wav
     9:22.20       99183884 B   ---   --   -----    wav  1.0000  gd79-01-18d1t05.wav
     5:16.22       55794188 B   ---   --   -----    wav  1.0000  gd79-01-18d1t06.wav
     6:18.13       66709820 B   ---   --   -----    wav  1.0000  gd79-01-18d1t07.wav
     7:32.09       79754012 B   ---   --   -----    wav  1.0000  gd79-01-18d1t08.wav
    11:02.72      116946188 B   ---   --   -----    wav  1.0000  gd79-01-18d1t09.wav
     6:04.37       64296668 B   ---   --   -----    wav  1.0000  gd79-01-18d1t10.wav
     7:06.35       75228764 B   ---   --   -----    wav  1.0000  gd79-01-18d1t11.wav
     6:18.45       66785084 B   ---   --   -----    wav  1.0000  gd79-01-18d2t01.wav
     6:48.12       71999468 B   ---   --   -----    wav  1.0000  gd79-01-18d2t02.wav
     7:17.27       77150348 B   ---   --   -----    wav  1.0000  gd79-01-18d2t03.wav
     4:33.37       48244268 B   ---   --   -----    wav  1.0000  gd79-01-18d2t04.wav
     9:12.56       97504556 B   ---   --   -----    wav  1.0000  gd79-01-18d2t05.wav
    12:38.62      133857068 B   ---   --   -----    wav  1.0000  gd79-01-18d3t01.wav
     8:27.04       89444252 B   ---   --   -----    wav  1.0000  gd79-01-18d3t02.wav
    12:39.28      133953500 B   ---   --   -----    wav  1.0000  gd79-01-18d3t03.wav
    10:08.39      107342972 B   ---   --   -----    wav  1.0000  gd79-01-18d3t04.wav
     7:30.61       79523516 B   ---   --   -----    wav  1.0000  gd79-01-18d3t05.wav
     5:42.18       60371180 B   ---   --   -----    wav  1.0000  gd79-01-18d3t06.wav
   165:25.19     1750815656 B                            1.0000  (22 files)
Show Checksums
flac-md5
82f2cc2fa78c4b913e100f60d47a62e6 *gd79-01-18d1t01.flac
acf9195cc79488d686324997f2da3a68 *gd79-01-18d1t02.flac
cd834bcd513af7a465d18b700ad82288 *gd79-01-18d1t03.flac
fcaaece7f89fbed0d84c5033bc0bfb14 *gd79-01-18d1t04.flac
457c83419bb0f5b44b9313321ddb8442 *gd79-01-18d1t05.flac
057718aad3e8cb1a3e7ca8ebf0c4c489 *gd79-01-18d1t06.flac
f1df5bef80cd2b65dbe68efffdb8b02e *gd79-01-18d1t07.flac
2e7f11599517142dc65e1931b880daa4 *gd79-01-18d1t08.flac
c4b57552472f7f08c559bc5c43cd9076 *gd79-01-18d1t09.flac
21165370946dc43cc3047607f0e9c895 *gd79-01-18d1t10.flac
283019637a612977c95b5e08b8410df8 *gd79-01-18d1t11.flac
86b78d280703b92da49af002a78b8814 *gd79-01-18d2t01.flac
e4a8367fd272fe34e240f23df465a5e5 *gd79-01-18d2t02.flac
ea559b5baa7a83ba2b4dc84d80283765 *gd79-01-18d2t03.flac
2aa0694589c0ade73007443c31c3c129 *gd79-01-18d2t04.flac
840158bdb720c73278506faaad7a7cea *gd79-01-18d2t05.flac
228e37c652020c9fd3dcaf06614aede9 *gd79-01-18d3t01.flac
6c42cdb52edd425cb9613b1094d8aac2 *gd79-01-18d3t02.flac
6f5f1212b4682636240e776babec3801 *gd79-01-18d3t03.flac
0fb65459f759a66000a6231beba68587 *gd79-01-18d3t04.flac
1c33a1a3496793ed61eee305d5a03e10 *gd79-01-18d3t05.flac
05a99ca3d5c8644a1b0c56c5c65c2af4 *gd79-01-18d3t06.flac
ffp
gd79-01-18d1t01.flac:5a0531f65f1e30cce7df3d5f64c33a1e
gd79-01-18d1t02.flac:76860a051370ad6836843fb321ad82a1
gd79-01-18d1t03.flac:2cc33dd44efb23d58747ed6ca62abdcd
gd79-01-18d1t04.flac:f671f3adc6b58cf2d1c89f977938784b
gd79-01-18d1t05.flac:2a303227684a6bf1245443a6aaabe2d3
gd79-01-18d1t06.flac:7d43792d2e846bdfb61b3ba00b05fad5
gd79-01-18d1t07.flac:d95e418f5359a34f0ae67984715ccbd3
gd79-01-18d1t08.flac:bcce4be164739cc4250fdafaadfdc335
gd79-01-18d1t09.flac:dee3cb6222f61d0231082d98f5a1a0de
gd79-01-18d1t10.flac:dfda671126e5e62fdbb0222a07262e48
gd79-01-18d1t11.flac:a0cc112438c54bd462b02975bb9e7c16
gd79-01-18d2t01.flac:f9b751d4dfc2739d8fdab403ddaf1b20
gd79-01-18d2t02.flac:a0211e1abad2cc1caf808d4425a46741
gd79-01-18d2t03.flac:48563787167db77b93398565bcd778af
gd79-01-18d2t04.flac:4a179af84063a9c120caeefa36d10df8
gd79-01-18d2t05.flac:5d492f179a500d4f50a3aedb1306aead
gd79-01-18d3t01.flac:4c019f454d4e3e38003c9655149ccdd0
gd79-01-18d3t02.flac:9e0062d13a4b6decaa94729741feea74
gd79-01-18d3t03.flac:c308419f2f34d2deb6b925fd8952e8ea
gd79-01-18d3t04.flac:4e6495f14b8c44987aa78e41c61c8468
gd79-01-18d3t05.flac:a4f2ba3997e3ccc80b43476881d6887a
gd79-01-18d3t06.flac:89f298c3b7389a76230632e79d7f7d92

Comments
Add Comment
Other Sources (comments)
Source: FOB AUD Master... (0) Updated lineage: Recording... (1) flac16; Recording... (0) flac24; Recording... (0) flac16; Recording... (2) flac24; FOB AUD: AKG... (0) flac16; FOB AUD: AKG... (0)
Date User Comment