Browse Collections Artists Sources   Search Dates

Add Show    List Management    Help


Phish 12/04/09
Madison Square Garden, New York, NY
Comments Add Comment    Source Collectors    Add to Collection    Add to Want List    History
Source # 103208 Other Sources
Entered by Jason Sobel
Checksums 16bit-FFP , 24bit-FFP
Disc Counts 2 / 3
Media Size
Date Circulated
Date Added
12/06/2009
12/07/2009
Source Summary Schoeps MK4 > KC5 > CMC6 > Oade Concert Mod. Edirol R-44 (@ 24 bit / 96 kHz); SD-HC Card > USB > Soundforge 8 (tracking, resample/dither to 16bit/44.1khz) > FLAC (Level 8); Taped & Transferred by Andy Murray (NOTE: both 16 bit & 24 bit versions are available) 
Source Information - Download Text | Download Zip
-----------------------------------------
----    16 bit / 44.1 kHz version    ----
-----------------------------------------

Phish
2009-12-04
Madison Square Garden
NYC, New York

Recorded and transferred by Andy Murray

From Taper's Section DINa Sec.10 row c seat 1
Schoeps MK4>KC5>CMC6>Oade Concert Mod. Edirol R-44(@24 bit/96khz)
SD-HC Card>USB>Soundforge 8(tracking,resample/dither to 16bit/44.1khz)>FLAC (sector alignment,Level 8 )

3 Discs
2 Sets

Thanks to Rich Revere for the use of the Oade Mod. R-44
and to Rob Adler for the extra CMC6/KC5/MK4.

Disc 1:
Set 1:

Intro
Heavy Things
Possum
Wilson
Kill Devil Falls
Glide
46 Days
Bouncing Around The Room
Reba
Dinner and a Movie
Guyute
Maze

Disc 2:
Set 1 cont...

First Tube

Set 2:

Intro
Scents And Subtle Sounds
Rock & Roll >
Seven Below >
Twist
Mike's Song >
I Am Hydrogen >
Weekapaug Groove
The Horse >
Silent in the Morning

Disc 3:
Set 2 cont...

You Enjoy Myself

Encore:

Shine A Light

length expanded size cdr WAVE problems filename
0:53.08 9368060 --- -- ----- phish2009-12-04_mk4_1644_d1t01.wav
5:49.06 61577756 --- -- ----- phish2009-12-04_mk4_1644_d1t02.wav
9:02.46 95717036 --- -- ----- phish2009-12-04_mk4_1644_d1t03.wav
4:31.70 47969084 --- -- ----- phish2009-12-04_mk4_1644_d1t04.wav
7:59.26 84556796 --- -- ----- phish2009-12-04_mk4_1644_d1t05.wav
4:02.34 42768812 --- -- ----- phish2009-12-04_mk4_1644_d1t06.wav
7:01.12 74292668 --- -- ----- phish2009-12-04_mk4_1644_d1t07.wav
3:39.64 38782172 --- -- ----- phish2009-12-04_mk4_1644_d1t08.wav
10:34.72 112006988 --- -- ----- phish2009-12-04_mk4_1644_d1t09.wav
3:39.71 38798636 --- -- ----- phish2009-12-04_mk4_1644_d1t10.wav
10:54.14 115398572 --- -- ----- phish2009-12-04_mk4_1644_d1t11.wav
9:37.18 101825180 --- -- ----- phish2009-12-04_mk4_1644_d1t12.wav
8:44.72 92602988 --- -- ----- phish2009-12-04_mk4_1644_d2t01.wav
0:45.11 7963916 --- -- ----- phish2009-12-04_mk4_1644_d2t02.wav
6:46.71 71785436 --- -- ----- phish2009-12-04_mk4_1644_d2t03.wav
11:06.02 117487148 --- -- ----- phish2009-12-04_mk4_1644_d2t04.wav
10:41.72 113241788 --- -- ----- phish2009-12-04_mk4_1644_d2t05.wav
8:00.26 84733196 --- -- ----- phish2009-12-04_mk4_1644_d2t06.wav
7:48.04 82564652 --- -- ----- phish2009-12-04_mk4_1644_d2t07.wav
2:34.30 27236204 --- -- ----- phish2009-12-04_mk4_1644_d2t08.wav
6:20.02 67036748 --- -- ----- phish2009-12-04_mk4_1644_d2t09.wav
1:08.57 12129308 --- -- ----- phish2009-12-04_mk4_1644_d2t10.wav
5:10.41 54780476 --- -- ----- phish2009-12-04_mk4_1644_d2t11.wav
23:16.11 246280316 --- -- ----- phish2009-12-04_mk4_1644_d3t01.wav
6:00.38 63593420 --- -- ----- phish2009-12-04_mk4_1644_d3t02.wav
176:09.53 1864497356 B (totals for 25 files, 1.0000 overall compression ratio)





---------------------------------------
----    24 bit / 96 kHz version    ----
---------------------------------------

Phish
2009-12-04
Madison Square Garden
NYC, New York

Recorded and transferred by Andy Murray

From Taper's Section DINa Sec.10 row c seat 1
Schoeps MK4>KC5>CMC6>Oade Concert Mod. Edirol R-44(@24 bit/96khz)
SD-HC Card>USB>Soundforge 8(tracking)>FLAC Level 8

2 Discs
2 Sets

Thanks to Rich Revere for the use of the Oade Mod. R-44
and to Rob Adler for the extra CMC6/KC5/MK4.

Disc 1:
Set 1:

Intro
Heavy Things
Possum
Wilson
Kill Devil Falls
Glide
46 Days
Bouncing Around The Room
Reba
Dinner and a Movie
Guyute
Maze
First Tube

Disc 2:
Set 2:

Intro
Scents And Subtle Sounds
Rock & Roll >
Seven Below >
Twist
Mike's Song >
I Am Hydrogen >
Weekapaug Groove
The Horse >
Silent in the Morning
You Enjoy Myself

Encore:

Shine A Light
Show Checksums
16bit-FFP
phish2009-12-04_mk4_1644_d1t01.flac:2822eac8a672d9f69e5117c77819eb77
phish2009-12-04_mk4_1644_d1t02.flac:49a9e0c5da3396782f1ec4f864470a79
phish2009-12-04_mk4_1644_d1t03.flac:a7d6fc358d39ea69b143f895a55649d2
phish2009-12-04_mk4_1644_d1t04.flac:18548a91138a5d9c6638987f81a285cb
phish2009-12-04_mk4_1644_d1t05.flac:d667b5d0159f2682cc952793a08fc27b
phish2009-12-04_mk4_1644_d1t06.flac:d862d7c840ae29dc37f6a036ecc8be15
phish2009-12-04_mk4_1644_d1t07.flac:686aa60786ee0acfa45c81b749ba4de3
phish2009-12-04_mk4_1644_d1t08.flac:a5990e42580aca989c7c52258697e051
phish2009-12-04_mk4_1644_d1t09.flac:bf5bc6f94614ef450be6c56cd59a8c8d
phish2009-12-04_mk4_1644_d1t10.flac:02b5c82a866a0b9b56b37847a6de5427
phish2009-12-04_mk4_1644_d1t11.flac:ea1fe33a58fc9545df212a2382c35a17
phish2009-12-04_mk4_1644_d1t12.flac:0b6eaffb8bf5c1514f0b1d1b73c5790f
phish2009-12-04_mk4_1644_d2t01.flac:57958fc89ec75724c7fb3e5cfa7d159a
phish2009-12-04_mk4_1644_d2t02.flac:094786b7dd3a5b1df83eec626573023d
phish2009-12-04_mk4_1644_d2t03.flac:ce27cbc8e1d98f011f5e2118888eae66
phish2009-12-04_mk4_1644_d2t04.flac:774743b93b2267f5af90534a388eb898
phish2009-12-04_mk4_1644_d2t05.flac:f61fbd62faad90e734c8fd3c105c68d1
phish2009-12-04_mk4_1644_d2t06.flac:2da07709282b883800b8024484b940c3
phish2009-12-04_mk4_1644_d2t07.flac:08194b4522b3f5d8597e02b77c13162a
phish2009-12-04_mk4_1644_d2t08.flac:9c5a234f2214bcb4cb09d3bcd90d25f9
phish2009-12-04_mk4_1644_d2t09.flac:15bf3840e727fe6022eb07855ec4c59a
phish2009-12-04_mk4_1644_d2t10.flac:6217c71e9188328793db35a16de777fd
phish2009-12-04_mk4_1644_d2t11.flac:e73945d219891c168a89bc32ed3983d9
phish2009-12-04_mk4_1644_d3t01.flac:b5206cf3a96ad765f0035aa34e7314c4
phish2009-12-04_mk4_1644_d3t02.flac:69c0709659dc464b7dc4c0112411dd9f
24bit-FFP
phish2009-12-04_mk4_2496_d1t01.flac:c1325a470535546859a28c70ae566a99
phish2009-12-04_mk4_2496_d1t02.flac:6f5174229c607683eb697b50f2e4b26c
phish2009-12-04_mk4_2496_d1t03.flac:2c4cc6415c66114626815048b1fabace
phish2009-12-04_mk4_2496_d1t04.flac:8ae440cbc2666270dcfa78ec51e9c497
phish2009-12-04_mk4_2496_d1t05.flac:e369a59e6c6475a27e21a77d03c76587
phish2009-12-04_mk4_2496_d1t06.flac:63581bbc16cd23aa9bc56223ff882f33
phish2009-12-04_mk4_2496_d1t07.flac:504952f48fb399e5f7a78e2304521ca7
phish2009-12-04_mk4_2496_d1t08.flac:cfd5541d4be23c25b9c800d998f7180b
phish2009-12-04_mk4_2496_d1t09.flac:0e6dcd7664221420a8c906400334b083
phish2009-12-04_mk4_2496_d1t10.flac:00cdb162745886802faa90a90dae9b41
phish2009-12-04_mk4_2496_d1t11.flac:448b32d830c70914689abab3b12188dd
phish2009-12-04_mk4_2496_d1t12.flac:d7159c4260cb8bcdea20db1403a3b12f
phish2009-12-04_mk4_2496_d1t13.flac:7429ad7a427788c08998995da068e78c
phish2009-12-04_mk4_2496_d2t01.flac:c5ce25b4958d05871f1e8a6f9432c245
phish2009-12-04_mk4_2496_d2t02.flac:bd9dd79bd0ae675404ccd10596ca84e4
phish2009-12-04_mk4_2496_d2t03.flac:a1fe88750fbaf7374717650b4e7d71a4
phish2009-12-04_mk4_2496_d2t04.flac:e4a30b5f3d583466f33dc09fd1487427
phish2009-12-04_mk4_2496_d2t05.flac:45ce3925572534eb60a00d7f0c1d33fd
phish2009-12-04_mk4_2496_d2t06.flac:91256fd1165710f0e386f9899c85ce34
phish2009-12-04_mk4_2496_d2t07.flac:c3f785e59006c6e92c3ff0822a350a32
phish2009-12-04_mk4_2496_d2t08.flac:495b1b08fa7291bb5592945e75585598
phish2009-12-04_mk4_2496_d2t09.flac:c599bc1d13a2185b8d1659997e82093f
phish2009-12-04_mk4_2496_d2t10.flac:a1d66ac4484457ad4b07d823bc146737
phish2009-12-04_mk4_2496_d2t11.flac:15042c220ed43246ec472a4b790babc8
phish2009-12-04_mk4_2496_d2t12.flac:3204dcf5ecd59ec47ccf668de552e2a9

Comments
Add Comment
Other Sources (comments)
Schoeps mk41 > KCY >... (0) Sennheiser MD441U > Edirol... (0) Schoeps MK41 > KC5 > CMC6 >... (0) Neumann TLM-170... (0) Schoeps mk41v's > kc5 >... (0) Neumann KM140s > Lunatec V2... (0) Microtech Gefell M210's >... (0) Schoeps mk41 > KC5 > M222 >... (0)
Date User Comment