Browse Collections Artists Sources   Search Dates

Add Show    List Management    Help


Grateful Dead 10/14/83
Hartford Civic Center, Hartford, CT
Comments Add Comment    Source Collectors    Add to Collection    Add to Want List    History
Source # 103233 Other Sources
Entered by dr.unclear
Checksums ffp , flac-md5
Disc Counts 2 / 3
Media Size
Date Circulated
Date Added
12/08/2009
12/08/2009
Source Summary flac16; Recording Info: (FOB) Sennheiser 421 -> Cassette Master (Sony TC-D5M/Maxell UDXLII-C90/Dolby B) Transfer Info: Cassette Master (Nakamichi DR-1) -> Sound Devices 744T (24bit/96k) -> Adobe Audition v1.5 -> Samplitude Professional v10.22 -> FLAC/16; Recorded By Jim Wise; All Transfers and Mastering By Charlie Miller 
  Archive
Source Information - Download Text | Download Zip
Grateful Dead - October 14, 1983
Civic Center - Hartford, CT

Recording Info:
(FOB) Sennheiser 421 -> Cassette Master (Sony TC-D5M/Maxell UDXLII-C90/Dolby B)

Transfer Info:
Cassette Master (Nakamichi DR-1) -> Sound Devices 744T (24bit/96k) ->
Adobe Audition v1.5 -> Samplitude Professional v10.22 -> FLAC/16
(3 Discs Audio / 2 Discs FLAC)

All Transfers and Mastering By Charlie Miller
[email protected]
December 7, 2009

Patch Info:
(FOB) Beyer M-160 -> Cassette Master -> CD (shnid=20023) supplies:
Fire On The Mountain (11:37 - 11:45)
Spanish Jam (0:05 - 0:14)

Notes:
-- Set 2 is seamless
-- Recorded By Jim Wise
-- Thanks to Jim Wise for lending me his master cassettes
-- Thanks to Joe B. Jones for his help with the pitch correction

Set 1:
d1t01 - Alabama Getaway ->
d1t02 - Greatest Story Ever Told
d1t03 - They Love Each Other
d1t04 - Mama Tried ->
d1t05 - Big River
d1t06 - Althea ->
d1t07 - C C Rider
d1t08 - Tennessee Jed
d1t09 - Hell In A Bucket ->
d1t10 - Keep Your Day Job

Set 2:
d2t01 - Tuning
d2t02 - Scarlet Begonias ->
d2t03 - Fire On The Mountain
d2t04 - Estimated Prophet ->
d2t05 - Eyes Of The World ->
d2t06 - Drums ->
d3t01 - Space ->
d3t02 - Spanish Jam ->
d3t03 - The Other One ->
d3t04 - Stella Blue ->
d3t05 - Sugar Magnolia

Encore:
d3t06 - U.S. Blues


SHNTOOL OUTPUT:
    length     expanded size    cdr  WAVE problems  fmt   ratio  filename
     6:12.73       65792540 B   ---   --   -----    wav  1.0000  gd83-10-14d1t01.wav
     4:27.27       47162348 B   ---   --   -----    wav  1.0000  gd83-10-14d1t02.wav
     9:07.14       96523772 B   ---   --   -----    wav  1.0000  gd83-10-14d1t03.wav
     2:48.71       29802236 B   ---   --   -----    wav  1.0000  gd83-10-14d1t04.wav
     6:27.23       68320940 B   ---   --   -----    wav  1.0000  gd83-10-14d1t05.wav
     8:50.28       93557900 B   ---   --   -----    wav  1.0000  gd83-10-14d1t06.wav
     9:01.44       95535932 B   ---   --   -----    wav  1.0000  gd83-10-14d1t07.wav
     8:53.57       94155308 B   ---   --   -----    wav  1.0000  gd83-10-14d1t08.wav
     5:53.43       62370380 B   ---   --   -----    wav  1.0000  gd83-10-14d1t09.wav
     5:56.59       62937212 B   ---   --   -----    wav  1.0000  gd83-10-14d1t10.wav
     0:45.39        8029772 B   ---   --   -----    wav  1.0000  gd83-10-14d2t01.wav
    14:18.50      151468844 B   ---   --   -----    wav  1.0000  gd83-10-14d2t02.wav
    16:55.52      179168348 B   ---   --   -----    wav  1.0000  gd83-10-14d2t03.wav
    13:10.28      139421900 B   ---   --   -----    wav  1.0000  gd83-10-14d2t04.wav
    17:53.07      189293708 B   ---   --   -----    wav  1.0000  gd83-10-14d2t05.wav
     5:48.54       61514252 B   ---   --   -----    wav  1.0000  gd83-10-14d2t06.wav
     5:27.72       57852188 B   ---   --   -----    wav  1.0000  gd83-10-14d3t01.wav
     5:29.62       58181468 B   ---   --   -----    wav  1.0000  gd83-10-14d3t02.wav
     8:21.18       88418780 B   ---   --   -----    wav  1.0000  gd83-10-14d3t03.wav
     9:10.34       97100012 B   ---   --   -----    wav  1.0000  gd83-10-14d3t04.wav
     9:51.61      104395916 B   ---   --   -----    wav  1.0000  gd83-10-14d3t05.wav
     5:23.45       57083084 B   ---   --   -----    wav  1.0000  gd83-10-14d3t06.wav
   180:16.61     1908086840 B                            1.0000  (22 files)
Show Checksums
ffp
gd83-10-14d1t01.flac:c1e91a38a41af2722a928711c3398136
gd83-10-14d1t02.flac:995539bc11edf91df7d5089d4e7b5f37
gd83-10-14d1t03.flac:e68d31aa045ef049c06773cd19c0fdf4
gd83-10-14d1t04.flac:a25d3ede42004126406b550940d82f8d
gd83-10-14d1t05.flac:f2a1afb51b47f7f7d0005ab592193278
gd83-10-14d1t06.flac:966bc1e0037892f121c707860c53938b
gd83-10-14d1t07.flac:a6d54b712e2670e3e8bf8cde8d2c83bb
gd83-10-14d1t08.flac:99e03af610e6c19605b2e3979707e43d
gd83-10-14d1t09.flac:516e80cfe6d06e563ea362a3cd2a867e
gd83-10-14d1t10.flac:ec3789582b8810bcc41214b4c45ba670
gd83-10-14d2t01.flac:d4273f402e367964c0e5fd1057c8aea2
gd83-10-14d2t02.flac:9acb60e9a3840e68454d9ba8610319e4
gd83-10-14d2t03.flac:ef27159000bbbb69c1381cbc29f1ef83
gd83-10-14d2t04.flac:455edfa2d29bad3fb593bb4ca594c1ec
gd83-10-14d2t05.flac:5804d25dfa1b416efdcb5dbbc2b1966f
gd83-10-14d2t06.flac:74d4d40fa71037ea5ff286239cc4c625
gd83-10-14d3t01.flac:b4d6201bbefa58420ab3a31cd260056d
gd83-10-14d3t02.flac:90f7748b5dcb7cc2607d2c52fbfa4179
gd83-10-14d3t03.flac:0c89a15f8e5a8ad7bfa99113ccca192e
gd83-10-14d3t04.flac:ab50941d0a448786cce1821f520a8899
gd83-10-14d3t05.flac:67dcc93d16504ca910e286c83ebd5724
gd83-10-14d3t06.flac:5010750f075b4446764edce867196fdd
flac-md5
550600dbd5d19c43264e02ec186e8db3 *gd83-10-14d1t01.flac
c32e0b6cdd2475f9cdaac24cdbe56ecc *gd83-10-14d1t02.flac
77660c1be949b90993fd0b199d817418 *gd83-10-14d1t03.flac
0a76ef509aa5e868b3c6405cb30cfb3e *gd83-10-14d1t04.flac
2d13c307b9c5ceb2d925e71c6ffed1ad *gd83-10-14d1t05.flac
89a437bb166eacd8494d55903cba62f3 *gd83-10-14d1t06.flac
1f8ba99e498a2dfe0314bb9c6969448f *gd83-10-14d1t07.flac
e720a782201f87270afcfe21a74c81d4 *gd83-10-14d1t08.flac
0e60aa7cc301b004e1e9ccecb4bcf253 *gd83-10-14d1t09.flac
c85874651789ebb72ed9f9f4a0d42754 *gd83-10-14d1t10.flac
b2668a772125a1d5961b4ff5e12bfc06 *gd83-10-14d2t01.flac
33d32384c00c5d19ac6184064a4cf04b *gd83-10-14d2t02.flac
44a6c704fda6f3eb372e8fd0db8d192c *gd83-10-14d2t03.flac
d1706f28bd48367a247b06a0dcf097bf *gd83-10-14d2t04.flac
18d0051ebf3b7413851899373acdf61c *gd83-10-14d2t05.flac
6907cebfe79035b774fbe51f473c8ba6 *gd83-10-14d2t06.flac
b6867138e182ccf4cd91b27350bcb52d *gd83-10-14d3t01.flac
76eb485916d1eef1698770e821a9dc2b *gd83-10-14d3t02.flac
ae4280fde661ec57ccd175cd70ba08df *gd83-10-14d3t03.flac
241e48fedd853186aa713863a849242e *gd83-10-14d3t04.flac
78d36f4fa9eac782fcdf75b5b880287d *gd83-10-14d3t05.flac
448dca0c0fbcef19440fadd730e5eb84 *gd83-10-14d3t06.flac

Comments
Add Comment
Other Sources (comments)
3 ATM 11 (tapers section) >... (0) Ficca FOB Sony TCD5M with 2... (1) 2 Nak 700's>Sony... (4) flac16; Lineage:... (0) flac16; Nakamichi... (0) flac24;nak 300/cp4... (1) flac24; Nakamichi... (0) flac24; Updated... (0) flac16; AUD:... (0) flac24; Master... (0) flac16; Master... (0) flac24; Partial Set... (0) flac16; Partial Set... (0)
Date User Comment