Browse Collections Artists Sources   Search Dates

Add Show    List Management    Help


Derek Trucks Band 12/03/09
Variety Playhouse, Atlanta, GA
Comments Add Comment    Source Collectors    Add to Collection    Add to Want List    History
Source # 103255 Other Sources
Entered by Steve Blanchard
Checksums ffp
Disc Counts 1 / 2
Media Size
Date Circulated
Date Added
12/06/09
12/09/2009
Source Summary AKG c426b (wide cardioid xy dfc fob) > V3 (24/96) > SD722, Transfer: firewire > wavelab 5.01b (dither & downsample) > CDWav (splits) > FLACFrontend, Taped and Transferred by: John Barren 
  Archive
Source Information - Download Text | Download Zip
Derek Trucks Band
12-03-2009
Variety Playhouse, Atlanta, Ga.

Source: AKG c426b (wide cardioid xy dfc fob)> V3 (24/96)>SD722
Transfer: firewire>wavelab 5.01b (dither & downsample)>CDWav (splits)>FLACFrontend
Taped and Transferred by: John Barren

One Set

01. I Know
02. Meet Me at the Bottom
03. Blind Crippled and Crazy
04. These Days is Almost Gone
05. band intros
06. This Sky*
07. Percussion
08. Down In the Flood*
09. Most Beautiful Thing*
10. Hercules#
11. Feel So [email protected]
12. Young Funk$
13. Anyday~
14. encore break
15. Key to the Highway%
16. We're a Winner^


*  w/Kevin Hyde-Trombone, Mace Hibbard-Sax
#  w/Susan Tedeschi-vocals, Duane Trucks-drums, Kevin Hyde-Trombone, Mace Hibbard-Sax
@  w/Col. Bruce Hampton Ret.-vocals, Jeff Sipe-drums, Susan Tedeschi-guitar, Kevin Hyde-Trombone,        
      Mace Hibbard-Sax
$  w/Jimmy Herring-guitar, Kevin Hyde-Trombone, Mace Hibbard-Sax
~  w/Susan Tedeschi-guitar &vocals, Paul Garrett-Trumpet, Kevin Hyde-Trombone, Mace Hibbard-Sax
%  w/Tinsley Ellis-guitar & vocals, Ed Toth-drums,
^  w/Jimmy Herring-guitar, w/Tinsley Ellis-guitar, Ed Toth-drums, Paul Garrett-Trumpet, Kevin Hyde-                      
       Trombone, Mace Hibbard-Sax

Flac Fingerprint
dtb2009-12-03t01.flac:2f3dad5278083061ff710f439546ff3b
dtb2009-12-03t02.flac:d980f93afe52367af3c59893f2035c90
dtb2009-12-03t03.flac:93a2ce859de873418cd13e6f2ecf4319
dtb2009-12-03t04.flac:1d9b9cbb60b285c1d224499abd5105cd
dtb2009-12-03t05.flac:0ae979752540e8708221fe6fceb29e2d
dtb2009-12-03t06.flac:d2e1a7eb62c548adef8dc9d475c6e45c
dtb2009-12-03t07.flac:d64cb056c456aa62b9a32ba3d8749cf4
dtb2009-12-03t08.flac:173a03d3f9c2a062aa65bae1929ead0e
dtb2009-12-03t09.flac:1dd09a0ad45a1b847347aaba13f9c81a
dtb2009-12-03t10.flac:bb794900c9a41847fd5b9db7f470983d
dtb2009-12-03t11.flac:d1ff6708d79cfbede1fa6c0ee8909606
dtb2009-12-03t12.flac:ffd348a259f5a77120cdf7728089f154
dtb2009-12-03t13.flac:fee7304b196138a14455d5dd1c018b1a
dtb2009-12-03t14.flac:ac9cc38b7b08099f574d739aa721bfd1
dtb2009-12-03t15.flac:2bb185881539115e3d9554d096087975
dtb2009-12-03t16.flac:7b40a4655b5b5f06f76a8e4650c7438b

Shntool
    length     expanded size    cdr  WAVE problems  fmt   ratio  filename
     8:44.47       92544188 B   ---   --   ---xx   flac  0.4932  dtb2009-12-03t01.flac
     7:21.11       77818316 B   ---   --   ---xx   flac  0.5491  dtb2009-12-03t02.flac
     9:20.41       98880476 B   ---   --   ---xx   flac  0.4796  dtb2009-12-03t03.flac
     6:47.69       71957132 B   ---   --   ---xx   flac  0.5427  dtb2009-12-03t04.flac
     1:40.27       17703548 B   ---   --   ---xx   flac  0.4636  dtb2009-12-03t05.flac
     7:02.65       74593724 B   ---   --   ---xx   flac  0.4911  dtb2009-12-03t06.flac
     0:46.45        8220284 B   ---   --   ---xx   flac  0.3935  dtb2009-12-03t07.flac
     7:49.73       82903340 B   ---   --   ---xx   flac  0.5201  dtb2009-12-03t08.flac
    15:03.32      159364508 B   ---   --   ---xx   flac  0.4996  dtb2009-12-03t09.flac
    10:49.32      114558908 B   ---   --   ---xx   flac  0.5095  dtb2009-12-03t10.flac
    13:07.32      138902108 B   ---   --   ---xx   flac  0.4891  dtb2009-12-03t11.flac
    12:28.40      132041324 B   ---   --   ---xx   flac  0.5031  dtb2009-12-03t12.flac
    14:38.29      154947452 B   ---   --   ---xx   flac  0.5144  dtb2009-12-03t13.flac
     3:16.69       34736732 B   ---   --   ---xx   flac  0.4323  dtb2009-12-03t14.flac
     9:51.24      104308892 B   ---   --   ---xx   flac  0.4742  dtb2009-12-03t15.flac
    11:53.46      125881436 B   ---   --   ---xx   flac  0.5014  dtb2009-12-03t16.flac
   140:43.07     1489362368 B                            0.5007  (16 files)
Show Checksums
ffp
dtb2009-12-03t01.flac:2f3dad5278083061ff710f439546ff3b
dtb2009-12-03t02.flac:d980f93afe52367af3c59893f2035c90
dtb2009-12-03t03.flac:93a2ce859de873418cd13e6f2ecf4319
dtb2009-12-03t04.flac:1d9b9cbb60b285c1d224499abd5105cd
dtb2009-12-03t05.flac:0ae979752540e8708221fe6fceb29e2d
dtb2009-12-03t06.flac:d2e1a7eb62c548adef8dc9d475c6e45c
dtb2009-12-03t07.flac:d64cb056c456aa62b9a32ba3d8749cf4
dtb2009-12-03t08.flac:173a03d3f9c2a062aa65bae1929ead0e
dtb2009-12-03t09.flac:1dd09a0ad45a1b847347aaba13f9c81a
dtb2009-12-03t10.flac:bb794900c9a41847fd5b9db7f470983d
dtb2009-12-03t11.flac:d1ff6708d79cfbede1fa6c0ee8909606
dtb2009-12-03t12.flac:ffd348a259f5a77120cdf7728089f154
dtb2009-12-03t13.flac:fee7304b196138a14455d5dd1c018b1a
dtb2009-12-03t14.flac:ac9cc38b7b08099f574d739aa721bfd1
dtb2009-12-03t15.flac:2bb185881539115e3d9554d096087975
dtb2009-12-03t16.flac:7b40a4655b5b5f06f76a8e4650c7438b

Comments
Add Comment
Other Sources (comments)
flac16/48 CA-14... (1) Busman CK1s (cards, X/Y,... (0)
Date User Comment