Browse Collections Artists Sources   Search Dates

Add Show    List Management    Help


Derek Trucks Band 12/02/09
Variety Playhouse, Atlanta, GA
Comments Add Comment    Source Collectors    Add to Collection    Add to Want List    History
Source # 103258 Other Sources
Entered by Steve Blanchard
Checksums ffp
Disc Counts 1 / 2
Media Size
Date Circulated
Date Added
12/03/09
12/09/2009
Source Summary AKG c426b (hypercardioid xy dfc fob) > V3 (24/96) > SD722, Transfer: firewire > wavelab 5.01b (dither & downsample) > CDWav (splits) > FLACFrontend, Taped and Transferred by: John Barren 
  Archive
Source Information - Download Text | Download Zip
Derek Trucks Band
2009-12-02
Variety Playhouse, Atlanta, Ga.

Source: AKG c426b (hypercardioid xy dfc fob)> V3 (24/96)>SD722
Transfer: firewire>wavelab 5.01b (dither & downsample)>CDWav (splits)>FLACFrontend
Taped and Transferred by: John Barren

01. Sweet Inspiration
02. Sailing On
03. Get What You Deserve
04. band intros
05. Already Free>
06. Mahjoun
07. Kam-ma-lay
08. Drums
09. Preachin' Blues
10. I'd Rather Go Blind
11. Done Got Over
12. Afro Blue
13. Get Out of My Life Woman>#
14. Who Knows#
15. Joyful Noise$
16. crowd
Encore
17. Leaving Trunk$

one set
*  w/ Susan Tedeschi vocals, Duane Trucks drums
#  w/ Little John Roberts drums, Jimmy Herring guitar, Ike Stubblefield Hammond B3
$  w/ Jimmy Herring guitar

flac fingerprint
dtb2009-12-02set1t01.flac:61cb835c0adc93f2415a413be8bff55c
dtb2009-12-02set1t02.flac:a8b4658db2f19a7a0700a86f22eb8447
dtb2009-12-02set1t03.flac:22d65968ec92c75f955930c9a3d684f9
dtb2009-12-02set1t04.flac:6184b1e79feae1d659c877541b7a82af
dtb2009-12-02set1t05.flac:77e8dc01abb5782844a01b75bd77276f
dtb2009-12-02set1t06.flac:366bbf28cd3183506c3b48b9336ad673
dtb2009-12-02set1t07.flac:8ec07d8bd31d4caaaf97dd58749532b5
dtb2009-12-02set1t08.flac:121c9de0230eefcb9f0ae0503cbe1085
dtb2009-12-02set1t09.flac:447537b0c33687a739968564c3dace9f
dtb2009-12-02set1t10.flac:d9093fe0de344b70a48db259b76e5fc3
dtb2009-12-02set1t11.flac:2415cbb1072225e99501bc90cf6e5f07
dtb2009-12-02set1t12.flac:4165c6c86bf55b8d95d9093245c133bc
dtb2009-12-02set1t13.flac:e10584e3cb343cf8e03878eece1a6dee
dtb2009-12-02set1t14.flac:7a685ed8f60fce6b10db306d92230b65
dtb2009-12-02set1t15.flac:4a36fde6f0c6df7ca159be4156cb0a5f
dtb2009-12-02set1t16.flac:250cfb8341a1ff18c7de2e6a7232d6be
dtb2009-12-02set1t17.flac:4fae12e5471b9514cad56a61a9a1a640

shntool
    length     expanded size    cdr  WAVE problems  fmt   ratio  filename
     7:28.67       79184828 B   ---   --   ---xx   flac  0.5193  dtb2009-12-02set1t01.flac
     7:13.56       76512956 B   ---   --   ---xx   flac  0.5675  dtb2009-12-02set1t02.flac
     7:40.09       81165212 B   ---   --   ---xx   flac  0.5945  dtb2009-12-02set1t03.flac
     0:58.31       10304156 B   ---   --   ---xx   flac  0.4654  dtb2009-12-02set1t04.flac
     6:55.17       73246028 B   ---   --   ---xx   flac  0.4463  dtb2009-12-02set1t05.flac
     5:28.58       57995660 B   ---   --   ---xx   flac  0.5100  dtb2009-12-02set1t06.flac
     7:35.50       80379644 B   ---   --   ---xx   flac  0.5646  dtb2009-12-02set1t07.flac
     1:54.59       20248412 B   ---   --   ---xx   flac  0.5019  dtb2009-12-02set1t08.flac
     7:30.74       79554092 B   ---   --   ---xx   flac  0.5486  dtb2009-12-02set1t09.flac
     8:00.54       84799052 B   ---   --   ---xx   flac  0.5314  dtb2009-12-02set1t10.flac
     5:53.15       62304524 B   ---   --   ---xx   flac  0.5572  dtb2009-12-02set1t11.flac
    13:35.42      143864828 B   ---   --   ---xx   flac  0.4961  dtb2009-12-02set1t12.flac
     9:23.27       99376748 B   ---   --   ---xx   flac  0.5645  dtb2009-12-02set1t13.flac
     5:11.44       54963932 B   ---   --   ---xx   flac  0.5561  dtb2009-12-02set1t14.flac
    16:06.13      170433020 B   ---   --   ---xx   flac  0.5408  dtb2009-12-02set1t15.flac
     2:32.73       26984540 B   ---   --   ---xx   flac  0.4338  dtb2009-12-02set1t16.flac
    12:41.01      134242796 B   ---   --   ---xx   flac  0.5287  dtb2009-12-02set1t17.flac
   126:11.15     1335560428 B                            0.5329  (17 files)
Show Checksums
ffp
dtb2009-12-02set1t01.flac:61cb835c0adc93f2415a413be8bff55c
dtb2009-12-02set1t02.flac:a8b4658db2f19a7a0700a86f22eb8447
dtb2009-12-02set1t03.flac:22d65968ec92c75f955930c9a3d684f9
dtb2009-12-02set1t04.flac:6184b1e79feae1d659c877541b7a82af
dtb2009-12-02set1t05.flac:77e8dc01abb5782844a01b75bd77276f
dtb2009-12-02set1t06.flac:366bbf28cd3183506c3b48b9336ad673
dtb2009-12-02set1t07.flac:8ec07d8bd31d4caaaf97dd58749532b5
dtb2009-12-02set1t08.flac:121c9de0230eefcb9f0ae0503cbe1085
dtb2009-12-02set1t09.flac:447537b0c33687a739968564c3dace9f
dtb2009-12-02set1t10.flac:d9093fe0de344b70a48db259b76e5fc3
dtb2009-12-02set1t11.flac:2415cbb1072225e99501bc90cf6e5f07
dtb2009-12-02set1t12.flac:4165c6c86bf55b8d95d9093245c133bc
dtb2009-12-02set1t13.flac:e10584e3cb343cf8e03878eece1a6dee
dtb2009-12-02set1t14.flac:7a685ed8f60fce6b10db306d92230b65
dtb2009-12-02set1t15.flac:4a36fde6f0c6df7ca159be4156cb0a5f
dtb2009-12-02set1t16.flac:250cfb8341a1ff18c7de2e6a7232d6be
dtb2009-12-02set1t17.flac:4fae12e5471b9514cad56a61a9a1a640


Comments
Add Comment
Other Sources (comments)
Neumann 140's > V3 > 722... (0)
Date User Comment