Browse Collections Artists Sources   Search Dates

Add Show    List Management    Help


Drive-By Truckers 05/04/08
The Intersection, Grand Rapids, MI
Comments Add Comment    Source Collectors    Add to Collection    Add to Want List    History
Source # 103332 Other Sources
Entered by
Checksums ffp
Disc Counts 0 / 0
Media Size
Date Circulated
Date Added
05/05/08
12/11/2009
Source Summary Source: Schoeps CCM4V'S(din)>Lunatec V2>Sound Devices 722 (24/48)
location: FOB/DFC/KFC/ZFC/AARP 31' From Stage 6 1/2' High
DSP: Sound Devices 722>Sound Forge 7.0>CD Wave>flac(16)
Recorded By: The Z-Man 
Source Information - Download Text | Download Zip
Drive By Truckers
The Intersection
Grand Rapids, Michigan
5/4/2008

source: Schoeps CCM4V'S(din)>Lunatec V2>Sound Devices 722 (24/48)
location: FOB/DFC/KFC/ZFC/AARP 31' From Stage 6 1/2' High
DSP: Sound Devices 722>Sound Forge 7.0>CD Wave>flac(16)
Recorded By: The Z-Man
Seeded By: The Z-Man

Disc I

01 Intro
02 A Righteous Path
03 A Ghost to Most
04 Sink Hole
05 72 (This Highway's Mean)
06 That Man I Shot
07 3 Dimes Down
08 I'm Sorry Houston
09 The Living Bubba
10 Where the Devil Don't Stay >
11 Puttin' People on the Moon >
12 I'm 18 >
13 Hell No, I Ain't Happy

Disc II

01 Gravity's Gone
02 Banter About Grandma
03 Box of Spiders
04 Carl Perkin's Cadillac
05 Life in the Factory >
06 Lookout Mountain
Encore:
07 Marry Me >
08 Let There Be Rock >
09 *People Who Died

* With Craig (Merch guy) on Guitar
Entire Show With Jay Gonzalez on Keyboards
Special Thanks to Russ Stonehouse helping me block FOB!

drivebytruckers2008-05-04d01t01.flac:e036d0dd31f0eddb73cf3e5824fcced4
drivebytruckers2008-05-04d01t02.flac:655be6879076b8267279e02f3d17fd9c
drivebytruckers2008-05-04d01t03.flac:8d1736185aa2a5b5dd26345a5d8918f9
drivebytruckers2008-05-04d01t04.flac:d0a6ee9cebcf5ed0c0dba03d27a34d3b
drivebytruckers2008-05-04d01t05.flac:e4c3a5685e95134fdba15f2d02d770f6
drivebytruckers2008-05-04d01t06.flac:b2d15b951fda1d10846907e3b9c407be
drivebytruckers2008-05-04d01t07.flac:90597b5f75cc06e3b8c3baeeb1b206e2
drivebytruckers2008-05-04d01t08.flac:104cea0732caed72cd05f510b88cb102
drivebytruckers2008-05-04d01t09.flac:ecee017d3d0c814be2cd2c0e9f33924c
drivebytruckers2008-05-04d01t10.flac:64c2e2ffbda8a510d363bff8a64bb26d
drivebytruckers2008-05-04d01t11.flac:240dac06e58bab60c86c2e946469c984
drivebytruckers2008-05-04d01t12.flac:7cf0fef49ec8a8a227a1c052b4f673a6
drivebytruckers2008-05-04d01t13.flac:1d0357ce3e0511c1fe518d37de2c7926
drivebytruckers2008-05-04d02t01.flac:c0c4d0687807ea5a4338446906a89e2a
drivebytruckers2008-05-04d02t02.flac:78cdcc7c6bf7d9c89bfe96bd1eec5647
drivebytruckers2008-05-04d02t03.flac:6ac0b23f9a31b669f04a83c657048e53
drivebytruckers2008-05-04d02t04.flac:142ef6e9b8ec88def06a2bed9f7c0dfb
drivebytruckers2008-05-04d02t05.flac:a4b167c1ffbd14d0d5837c3bf4e9066b
drivebytruckers2008-05-04d02t06.flac:6957611351e34e7452b35b0b3ff1093f
drivebytruckers2008-05-04d02t07.flac:09a93dec1ac8e59ee26f20ff2b8f8410
drivebytruckers2008-05-04d02t08.flac:50cb71fceda001a6c465c3566dd5bec8
drivebytruckers2008-05-04d02t09.flac:1489db67734a2dff642e7002d37ee1e3

  length     expanded size   cdr  WAVE problems filename
     1:55.19       20330732    ---   --   ---xx   drivebytruckers2008-05-04d01t01.flac
     4:40.17       49432028    ---   --   ---xx   drivebytruckers2008-05-04d01t02.flac
     4:35.50       48627644    ---   --   ---xx   drivebytruckers2008-05-04d01t03.flac
     4:56.06       52228556    ---   --   ---xx   drivebytruckers2008-05-04d01t04.flac
     5:43.02       60509948    ---   --   ---xx   drivebytruckers2008-05-04d01t05.flac
     5:48.65       61540124    ---   --   ---xx   drivebytruckers2008-05-04d01t06.flac
     3:09.51       33459596    ---   --   ---xx   drivebytruckers2008-05-04d01t07.flac
     3:30.08       37062860    ---   --   ---xx   drivebytruckers2008-05-04d01t08.flac
     6:40.19       70604732    ---   --   ---xx   drivebytruckers2008-05-04d01t09.flac
     5:23.08       56996060    ---   --   ---xx   drivebytruckers2008-05-04d01t10.flac
     6:55.48       73318940    ---   --   ---xx   drivebytruckers2008-05-04d01t11.flac
     5:00.61       53063516    ---   --   ---xx   drivebytruckers2008-05-04d01t12.flac
     6:15.57       66284108    ---   --   ---xx   drivebytruckers2008-05-04d01t13.flac
     3:57.55       41936204    ---   --   ---xx   drivebytruckers2008-05-04d02t01.flac
     3:55.21       41503436    ---   --   ---xx   drivebytruckers2008-05-04d02t02.flac
     5:11.35       54942764    ---   --   ---xx   drivebytruckers2008-05-04d02t03.flac
     5:39.51       59919596    ---   --   ---xx   drivebytruckers2008-05-04d02t04.flac
     5:51.70       62081084    ---   --   ---xx   drivebytruckers2008-05-04d02t05.flac
     5:12.08       55055660    ---   --   ---xx   drivebytruckers2008-05-04d02t06.flac
     6:37.11       70056716    ---   --   ---xx   drivebytruckers2008-05-04d02t07.flac
     5:46.28       61100300    ---   --   ---xx   drivebytruckers2008-05-04d02t08.flac
     6:39.05       70395404    ---   --   ---xx   drivebytruckers2008-05-04d02t09.flac
   113:25.20     1200450008 B                     (totals for 22 files, 0.5846 overall compression ratio)



Show Checksums
ffp
drivebytruckers2008-05-04d01t01.flac:e036d0dd31f0eddb73cf3e5824fcced4
drivebytruckers2008-05-04d01t02.flac:655be6879076b8267279e02f3d17fd9c
drivebytruckers2008-05-04d01t03.flac:8d1736185aa2a5b5dd26345a5d8918f9
drivebytruckers2008-05-04d01t04.flac:d0a6ee9cebcf5ed0c0dba03d27a34d3b
drivebytruckers2008-05-04d01t05.flac:e4c3a5685e95134fdba15f2d02d770f6
drivebytruckers2008-05-04d01t06.flac:b2d15b951fda1d10846907e3b9c407be
drivebytruckers2008-05-04d01t07.flac:90597b5f75cc06e3b8c3baeeb1b206e2
drivebytruckers2008-05-04d01t08.flac:104cea0732caed72cd05f510b88cb102
drivebytruckers2008-05-04d01t09.flac:ecee017d3d0c814be2cd2c0e9f33924c
drivebytruckers2008-05-04d01t10.flac:64c2e2ffbda8a510d363bff8a64bb26d
drivebytruckers2008-05-04d01t11.flac:240dac06e58bab60c86c2e946469c984
drivebytruckers2008-05-04d01t12.flac:7cf0fef49ec8a8a227a1c052b4f673a6
drivebytruckers2008-05-04d01t13.flac:1d0357ce3e0511c1fe518d37de2c7926
drivebytruckers2008-05-04d02t01.flac:c0c4d0687807ea5a4338446906a89e2a
drivebytruckers2008-05-04d02t02.flac:78cdcc7c6bf7d9c89bfe96bd1eec5647
drivebytruckers2008-05-04d02t03.flac:6ac0b23f9a31b669f04a83c657048e53
drivebytruckers2008-05-04d02t04.flac:142ef6e9b8ec88def06a2bed9f7c0dfb
drivebytruckers2008-05-04d02t05.flac:a4b167c1ffbd14d0d5837c3bf4e9066b
drivebytruckers2008-05-04d02t06.flac:6957611351e34e7452b35b0b3ff1093f
drivebytruckers2008-05-04d02t07.flac:09a93dec1ac8e59ee26f20ff2b8f8410
drivebytruckers2008-05-04d02t08.flac:50cb71fceda001a6c465c3566dd5bec8
drivebytruckers2008-05-04d02t09.flac:1489db67734a2dff642e7002d37ee1e3

Comments
Add Comment
Date User Comment