Browse Collections Artists Sources   Search Dates

Add Show    List Management    Help


Gov't Mule 02/13/09
The Fillmore Auditorium, Denver, CO
Comments Add Comment    Source Collectors    Add to Collection    Add to Want List    History
Source # 103353 Other Sources
Entered by
Checksums ffp
Disc Counts 2 / 3
Media Size
Date Circulated
Date Added
11/24/2009
12/11/2009
Source Summary 16 BIT Source: MBHO 603a>actives>KA500N(TS) > V3(24/48) > HD-P2(digital in)
Transfer: HD-P2 > Firewire > Sound Forge Pro 10(Normalize/Fades/Dither/Resample) > CDWave > FLAC16(8) > Foobar(Live Show Tagger)
Taped & Transfered by: Eric Foelske 
Source Information - Download Text | Download Zip
Gov't Mule

Friday, February 13, 2009
Fillmore Auditorium
Denver, CO

** 16 Bit **

Disc 1/Set I: (70:48)
01. Bad Little Doggie
02. Mr. High & Mighty
03. Game Face
04. She Said, She Said >
05. Tomorrow Never Knows
06. Since I've Been Loving You
07. I'll Be the One
08. Banks of the Deep End
09. Funky Bird >
10. Kind of Bird

Disc 2/Set II: (76:26)
01. Get Behind the Mule
02. Sco-Mule
03. About a Girl
04. Effigy >
05. Folsom Prison Blues Jam >
06. Drums >
07. Jam >
08. Effigy Reprise
09. So Weak, So Strong
10. I'm a Ram
11. Blind Man in the Dark > Ain't No Sunshine > Blind Man in the Dark

Disc 3/Encore: (13:47)
01. Crowd
02. Fallen Down > The Other One Jam > Fallen Down

Source: MBHO 603a>actives>KA500N(TS) > V3(24/48) > HD-P2(digital in)
Transfer: HD-P2 > Firewire > Sound Forge Pro 10(Normalize/Fades/Dither/Resample) > CDWave > FLAC16(8) > Foobar(Live Show Tagger)
Taped & Transfered by: Eric Foelske (taperwookie AT gmail.com)
----------------------------------------------------------
FLAC Fingerprint:
----------------------------------------------------------
gmule2009-02-13d1t01.flac:27deede48186458c796f381a4f514183
gmule2009-02-13d1t02.flac:cde9b52f7329f13fd6f74353b0036ad4
gmule2009-02-13d1t03.flac:2f360a666dddbbc428418eae6785c9cd
gmule2009-02-13d1t04.flac:4a6a667601fdc7dc67b9f18e9243c7db
gmule2009-02-13d1t05.flac:abe66a2e725cc8c278e43dc9d62d4a5c
gmule2009-02-13d1t06.flac:b92ec16adab7e40652e388dfbf2a949f
gmule2009-02-13d1t07.flac:98553ca655680e9ba64c504564772688
gmule2009-02-13d1t08.flac:6bd475cdc1606e7b21147c1960e6daaf
gmule2009-02-13d1t09.flac:2d5b7fcdb03bc9b0398ae53e3634ecba
gmule2009-02-13d1t10.flac:9d83a818222526a43843721596b0376c
gmule2009-02-13d2t01.flac:5ac3a06af63275b00778c48e4ce2c14b
gmule2009-02-13d2t02.flac:b4ce021db11606e3e5a8715de2afbcb8
gmule2009-02-13d2t03.flac:8dd907cffa2c5c9e38b71cf163e55fad
gmule2009-02-13d2t04.flac:141d2aaa274af21727bab1b44474372d
gmule2009-02-13d2t05.flac:9a05f4764ab118639437107b0b259d22
gmule2009-02-13d2t06.flac:5ac72da9a6c1178cd68ba125c2924405
gmule2009-02-13d2t07.flac:533cca13dc04f0fc56d54d973f560584
gmule2009-02-13d2t08.flac:64536162c2887121a35f400a4bc21c25
gmule2009-02-13d2t09.flac:27714be20cfbd84a5f568c886549eaf0
gmule2009-02-13d2t10.flac:82e7ff2a0697d549e81742f7c5b600bd
gmule2009-02-13d2t11.flac:ed6603b94661515d49ca3b02e3cfba17
gmule2009-02-13d3t01.flac:bcb2a98f6a2341f7a14c243bd7dbbfcd
gmule2009-02-13d3t02.flac:5c7a6de71ae8af3f3ed6a0a0949c9d3b
----------------------------------------------------------
shntool:
----------------------------------------------------------
    length     expanded size   cdr  WAVE problems filename
     3:52.71       41091836    ---   --   ---xx   gmule2009-02-13d1t01.flac
     5:13.04       55222652    ---   --   ---xx   gmule2009-02-13d1t02.flac
    11:37.55      123080204    ---   --   ---xx   gmule2009-02-13d1t03.flac
     4:21.12       46068668    ---   --   ---xx   gmule2009-02-13d1t04.flac
     8:26.56       89390156    ---   --   ---xx   gmule2009-02-13d1t05.flac
     8:29.06       89801756    ---   --   ---xx   gmule2009-02-13d1t06.flac
     9:02.32       95684108    ---   --   ---xx   gmule2009-02-13d1t07.flac
     6:01.01       63682796    ---   --   ---xx   gmule2009-02-13d1t08.flac
     2:00.21       21217436    ---   --   ---xx   gmule2009-02-13d1t09.flac
    11:43.61      124152716    ---   --   ---xx   gmule2009-02-13d1t10.flac
     8:57.57       94860908    ---   --   ---xx   gmule2009-02-13d2t01.flac
     9:17.04       98264252    ---   --   ---xx   gmule2009-02-13d2t02.flac
     6:36.11       69880316    ---   --   ---xx   gmule2009-02-13d2t03.flac
     5:29.68       58195580    ---   --   ---xx   gmule2009-02-13d2t04.flac
     2:32.59       26951612    ---   --   ---xx   gmule2009-02-13d2t05.flac
     9:01.40       95526524    ---   --   ---xx   gmule2009-02-13d2t06.flac
     1:19.09       13956812    ---   --   ---xx   gmule2009-02-13d2t07.flac
     2:15.26       23875196    ---   --   ---xx   gmule2009-02-13d2t08.flac
     5:39.55       59929004    ---   --   ---xx   gmule2009-02-13d2t09.flac
     8:30.46       90072236    ---   --   ---xx   gmule2009-02-13d2t10.flac
    16:46.72      177627788    ---   --   ---xx   gmule2009-02-13d2t11.flac
     2:50.63       30136220    ---   --   ---xx   gmule2009-02-13d3t01.flac
    10:57.01      115897196    ---   --   ---xx   gmule2009-02-13d3t02.flac
   161:03.05     1704565972 B                     (totals for 23 files, 0.5355 overall compression ratio)
Show Checksums
ffp
gmule2009-02-13d1t01.flac:27deede48186458c796f381a4f514183
gmule2009-02-13d1t02.flac:cde9b52f7329f13fd6f74353b0036ad4
gmule2009-02-13d1t03.flac:2f360a666dddbbc428418eae6785c9cd
gmule2009-02-13d1t04.flac:4a6a667601fdc7dc67b9f18e9243c7db
gmule2009-02-13d1t05.flac:abe66a2e725cc8c278e43dc9d62d4a5c
gmule2009-02-13d1t06.flac:b92ec16adab7e40652e388dfbf2a949f
gmule2009-02-13d1t07.flac:98553ca655680e9ba64c504564772688
gmule2009-02-13d1t08.flac:6bd475cdc1606e7b21147c1960e6daaf
gmule2009-02-13d1t09.flac:2d5b7fcdb03bc9b0398ae53e3634ecba
gmule2009-02-13d1t10.flac:9d83a818222526a43843721596b0376c
gmule2009-02-13d2t01.flac:5ac3a06af63275b00778c48e4ce2c14b
gmule2009-02-13d2t02.flac:b4ce021db11606e3e5a8715de2afbcb8
gmule2009-02-13d2t03.flac:8dd907cffa2c5c9e38b71cf163e55fad
gmule2009-02-13d2t04.flac:141d2aaa274af21727bab1b44474372d
gmule2009-02-13d2t05.flac:9a05f4764ab118639437107b0b259d22
gmule2009-02-13d2t06.flac:5ac72da9a6c1178cd68ba125c2924405
gmule2009-02-13d2t07.flac:533cca13dc04f0fc56d54d973f560584
gmule2009-02-13d2t08.flac:64536162c2887121a35f400a4bc21c25
gmule2009-02-13d2t09.flac:27714be20cfbd84a5f568c886549eaf0
gmule2009-02-13d2t10.flac:82e7ff2a0697d549e81742f7c5b600bd
gmule2009-02-13d2t11.flac:ed6603b94661515d49ca3b02e3cfba17
gmule2009-02-13d3t01.flac:bcb2a98f6a2341f7a14c243bd7dbbfcd
gmule2009-02-13d3t02.flac:5c7a6de71ae8af3f3ed6a0a0949c9d3b

Comments
Add Comment
Other Sources (comments)
source: Schoeps MK4 > CMC-6... (0) Recording Info: FOBH... (0) SOURCE: Beyerdyamic MC930 >... (0) 24 BIT Source: MBHO... (0)
Date User Comment