Browse Collections Artists Sources   Search Dates

Add Show    List Management    Help


Gov't Mule 12/15/07
Asheville Civic Center, Asheville, NC
Comments Add Comment    Source Collectors    Add to Collection    Add to Want List    History
Source # 103437 Other Sources
Entered by
Checksums ffp
Disc Counts 1 / 1
Media Size
Date Circulated
Date Added
12/16/2007
12/13/2009
Source Summary Source: Schoeps CCM4V'S(din)>Lunatec V2>Sound Devices 722 (24/48)
location: fob/dfc/kfc/zfc/aarp 6' high
dsp: 722>Sound Forge 7.0>CD Wave>flac(16)
Recorded & Seeded: The Z-Man 
Source Information - Download Text | Download Zip
Gov't Mule
Warren Haynes 19th Annual Christmas Jam
Asheville Civic Center
Asheville, North Carolina
12/15/2007

Source: Schoeps CCM4V'S(din)>Lunatec V2>Sound Devices 722 (24/48)
location: fob/dfc/kfc/zfc/aarp 6' high
dsp: 722>Sound Forge 7.0>CD Wave>flac(16)
Recorded & Seeded: The Z-Man

Disc I

01 Introduction/Jam
02 Beautifully Broken
03 I'm a Ram
04 Streamline Woman
05 Mr. High and Mighty
06 Banter
07 *Fixin' to Die
08 #I Believe
09 @32-20 Blues
Encore:
10 $Goin' Out West >
11 $Bang a Gong (Get It On) >
12 $Goin' Out West

*With Jason Isbell, Ron Holloway, Bernie Worrell, and Colonel Bruce Hampton
#With Bernie Worrell and Peter Frampton
@With Ron Holloway and Mike Barnes
$With Audley Freed

MULEXMASJAM2007-12-15D01T12.flac:d1199cdbf0c900970968d8032fec4706
MULEXMASJAM2007-12-15D01T01.flac:834009ab4aa330d2b1cdc34b8c447820
MULEXMASJAM2007-12-15D01T02.flac:05ce02827b1d3ebc6d96c29616a192b7
MULEXMASJAM2007-12-15D01T03.flac:f1d38fcd0b8d031f7b3aaa9831e548b4
MULEXMASJAM2007-12-15D01T04.flac:83425ef3d020d9ef05c57fee5fee0837
MULEXMASJAM2007-12-15D01T05.flac:1e5bb2ebb111f129f3da847820c54dde
MULEXMASJAM2007-12-15D01T06.flac:b1e0a10c8755da2ea52529ad3efc0f6e
MULEXMASJAM2007-12-15D01T07.flac:f9f29501f91911fa5bd0ec74ed4ef769
MULEXMASJAM2007-12-15D01T08.flac:1bfeaf2c82457913fccc7e85a467f450
MULEXMASJAM2007-12-15D01T09.flac:5cf59b0aac2fe0fe5271f0e19e99d348
MULEXMASJAM2007-12-15D01T10.flac:f7e45b9a1cde568a32ba370cd952c6b6
MULEXMASJAM2007-12-15D01T11.flac:65a10fca9077362e00bcbcc26c473871

length expanded size cdr WAVE problems filename
1:52.05 19768604 --- -- ---xx MULEXMASJAM2007-12-15D01T01.flac
6:25.06 67928156 --- -- ---xx MULEXMASJAM2007-12-15D01T02.flac
9:30.54 100675052 --- -- ---xx MULEXMASJAM2007-12-15D01T03.flac
4:23.60 46534364 --- -- ---xx MULEXMASJAM2007-12-15D01T04.flac
5:28.71 58026236 --- -- ---xx MULEXMASJAM2007-12-15D01T05.flac
2:24.07 25418108 --- -- ---xx MULEXMASJAM2007-12-15D01T06.flac
7:02.14 74473772 --- -- ---xx MULEXMASJAM2007-12-15D01T07.flac
7:50.34 82988012 --- -- ---xx MULEXMASJAM2007-12-15D01T08.flac
9:43.28 102907100 --- -- ---xx MULEXMASJAM2007-12-15D01T09.flac
5:35.10 59117564 --- -- ---xx MULEXMASJAM2007-12-15D01T10.flac
1:09.04 12181052 --- -- ---xx MULEXMASJAM2007-12-15D01T11.flac
2:35.70 27506684 --- -- ---xx MULEXMASJAM2007-12-15D01T12.flac
64:00.63 677524704 B (totals for 12 files, 0.5247 overall compression ratio)
Show Checksums
ffp
MULEXMASJAM2007-12-15D01T12.flac:d1199cdbf0c900970968d8032fec4706
MULEXMASJAM2007-12-15D01T01.flac:834009ab4aa330d2b1cdc34b8c447820
MULEXMASJAM2007-12-15D01T02.flac:05ce02827b1d3ebc6d96c29616a192b7
MULEXMASJAM2007-12-15D01T03.flac:f1d38fcd0b8d031f7b3aaa9831e548b4
MULEXMASJAM2007-12-15D01T04.flac:83425ef3d020d9ef05c57fee5fee0837
MULEXMASJAM2007-12-15D01T05.flac:1e5bb2ebb111f129f3da847820c54dde
MULEXMASJAM2007-12-15D01T06.flac:b1e0a10c8755da2ea52529ad3efc0f6e
MULEXMASJAM2007-12-15D01T07.flac:f9f29501f91911fa5bd0ec74ed4ef769
MULEXMASJAM2007-12-15D01T08.flac:1bfeaf2c82457913fccc7e85a467f450
MULEXMASJAM2007-12-15D01T09.flac:5cf59b0aac2fe0fe5271f0e19e99d348
MULEXMASJAM2007-12-15D01T10.flac:f7e45b9a1cde568a32ba370cd952c6b6
MULEXMASJAM2007-12-15D01T11.flac:65a10fca9077362e00bcbcc26c473871

Comments
Add Comment
Other Sources (comments)
Source: Schoeps MK4 > KC5... (0) Source: 2- Sennheiser... (0) 24 bit Source:... (0) Source: 2-Nakamichi CM300's... (0)
Date User Comment