Browse Collections Artists Sources   Search Dates

Add Show    List Management    Help


Gov't Mule 12/14/07
Stella Blue, Asheville, NC
Comments Add Comment    Source Collectors    Add to Collection    Add to Want List    History
Source # 103438 Other Sources
Entered by
Checksums ffp
Disc Counts 1 / 1
Media Size
Date Circulated
Date Added
12/15/2007
12/13/2009
Source Summary Source: Schoeps CCM4V'S(din)>Lunatec V2>Sound Devices 722 (24/48)
location: fob/dfc/kfc/zfc/aarp 24' From Stage 7' high
dsp: 722>Sound Forge 7.0>CD Wave>flac(16)
Recorded & Seeded: The Z-Man 
Source Information - Download Text | Download Zip
Gov't Mule and Friends
Stella Blue
Asheville, North Carolina
12/14/2007

Source: Schoeps CCM4V'S(din)>Lunatec V2>Sound Devices 722 (24/48)
location: fob/dfc/kfc/zfc/aarp 24' From Stage 7' high
dsp: 722>Sound Forge 7.0>CD Wave>flac(16)
Recorded & Seeded: The Z-Man

Disc I

01 Tuning
02 That's What Love Will Make Make Do
03 Smokestack Lightning >
04 Funky Good Time >
05 Smokestack Lightning
06 Ain't No Sunshine
07 Lively Up Yourself

Warren Haynes guitar and vocals
Andy Hess: bass
Matt Abts: drums
Audley Freed: guitar
Bernie Worrell: keys

MULE2007-12-13 44-107.flac:8496e1725f81e46a0c0d0a46d9d9b3a4
MULE2007-12-13 44-101.flac:4c8ec55efe8853d46827b5e1ccc5aa06
MULE2007-12-13 44-102.flac:fb56ea396c39bd7c5433ca020838b428
MULE2007-12-13 44-103.flac:99d01fe6c58976d865a5a9d6e43fc05f
MULE2007-12-13 44-104.flac:268acdcf8762d6fc56cb8df776355ed2
MULE2007-12-13 44-105.flac:3c9c901eb289a7d8fff8a141549d11dc
MULE2007-12-13 44-106.flac:c25f752c91b50baa42fa40f93abc678b

length expanded size cdr WAVE problems filename
1:45.72 18691388 --- -- ---xx MULE2007-12-13 44-101.flac
6:14.33 66051260 --- -- ---xx MULE2007-12-13 44-102.flac
4:12.19 44497532 --- -- ---xx MULE2007-12-13 44-103.flac
4:18.65 45664124 --- -- ---xx MULE2007-12-13 44-104.flac
1:38.45 17393084 --- -- ---xx MULE2007-12-13 44-105.flac
5:42.31 60401756 --- -- ---xx MULE2007-12-13 44-106.flac
12:05.07 127906508 --- -- ---xx MULE2007-12-13 44-107.flac
35:57.47 380605652 B (totals for 7 files, 0.5402 overall compression ratio)
Show Checksums
ffp
MULE2007-12-13 44-107.flac:8496e1725f81e46a0c0d0a46d9d9b3a4
MULE2007-12-13 44-101.flac:4c8ec55efe8853d46827b5e1ccc5aa06
MULE2007-12-13 44-102.flac:fb56ea396c39bd7c5433ca020838b428
MULE2007-12-13 44-103.flac:99d01fe6c58976d865a5a9d6e43fc05f
MULE2007-12-13 44-104.flac:268acdcf8762d6fc56cb8df776355ed2
MULE2007-12-13 44-105.flac:3c9c901eb289a7d8fff8a141549d11dc
MULE2007-12-13 44-106.flac:c25f752c91b50baa42fa40f93abc678b

Comments
Add Comment
Other Sources (comments)
Source: 2- Sennheiser... (0) source: Neumann km140... (0)
Date User Comment