Browse Collections Artists Sources   Search Dates

Add Show    List Management    Help


Grateful Dead 10/03/81
Rainbow Theater, London, England
Comments Add Comment    Source Collectors    Add to Collection    Add to Want List    History
Source # 103480 Other Sources
Entered by Gary Field
Checksums ffp , flac-md5
Disc Counts 2 / 3
Media Size
Date Circulated
Date Added
12/14/2009
12/14/2009
Source Summary flac16; Recording Info: SBD -> Cassette Master -> Dat Transfer Info: Dat (Sony R500) -> Samplitude Professional v10.22 -> Cool Edit Pro v2.0 -> FLAC ; All Transfers and Mastering By Charlie Miller 
  Archive
Source Information - Download Text | Download Zip
Grateful Dead - October 3, 1981
Rainbow Theatre - London, England

Recording Info:
SBD -> Cassette Master -> Dat

Transfer Info:
Dat (Sony R500) -> Samplitude Professional v10.22 -> Cool Edit Pro v2.0 -> FLAC
(Had been marked: Dat (Sony R500) -> Samplitude Professional v10.22 -> FLAC)
(3 Discs Audio / 2 Discs FLAC)

All Transfers and Mastering By Charlie Miller
[email protected]
December 13, 2009

Notes:
-- This source is an upgrade (Complete and NO digital noise reduction)
-- Thanks to Joe B. Jones for his help with the pitch correction

Set 1:
d1t01 - Alabama Getaway ->
d1t02 - Promised Land
d1t03 - Peggy-O ->
d1t04 - Me And My Uncle ->
d1t05 - Big River
d1t06 - Tennessee Jed
d1t07 - Little Red Rooster
d1t08 - Bird Song
d1t09 - Looks Like Rain
d1t10 - China Cat Sunflower ->
d1t11 - I Know You Rider

Set 2:
d2t01 - Tuning
d2t02 - Feel Like A Stranger ->
d2t03 - Franklin's Tower ->
d2t04 - Estimated Prophet ->
d2t05 - Terrapin Station ->
d2t06 - Drums ->
d3t01 - Space ->
d3t02 - Not Fade Away ->
d3t03 - Morning Dew ->
d3t04 - Around And Around ->
d3t05 - One More Saturday Night

Encore:
d3t06 - Brokedown Palace


SHNTOOL OUTPUT:
    length     expanded size    cdr  WAVE problems  filename
     4:22.25       46275644 B   ---   --   -----    gd81-10-03d1t01.wav
     5:33.17       58781228 B   ---   --   -----    gd81-10-03d1t02.wav
     6:06.21       64611836 B   ---   --   -----    gd81-10-03d1t03.wav
     3:03.67       32438828 B   ---   --   -----    gd81-10-03d1t04.wav
     6:59.27       73975148 B   ---   --   -----    gd81-10-03d1t05.wav
     8:36.29       91090652 B   ---   --   -----    gd81-10-03d1t06.wav
     8:27.73       89606540 B   ---   --   -----    gd81-10-03d1t07.wav
    11:26.69      121172732 B   ---   --   -----    gd81-10-03d1t08.wav
    10:19.30      109262204 B   ---   --   -----    gd81-10-03d1t09.wav
     6:17.35       66585164 B   ---   --   -----    gd81-10-03d1t10.wav
     5:45.39       60949772 B   ---   --   -----    gd81-10-03d1t11.wav
     1:03.10       11136764 B   ---   --   -----    gd81-10-03d2t01.wav
     8:43.68       92417180 B   ---   --   -----    gd81-10-03d2t02.wav
    10:25.15      110285324 B   ---   --   -----    gd81-10-03d2t03.wav
    13:15.45      140343884 B   ---   --   -----    gd81-10-03d2t04.wav
    12:01.34      127264412 B   ---   --   -----    gd81-10-03d2t05.wav
    11:54.72      126118988 B   ---   --   -----    gd81-10-03d2t06.wav
     7:08.39       75590972 B   ---   --   -----    gd81-10-03d3t01.wav
     9:29.25      100430444 B   ---   --   -----    gd81-10-03d3t02.wav
    11:16.55      119375804 B   ---   --   -----    gd81-10-03d3t03.wav
     3:51.57       40882508 B   ---   --   -----    gd81-10-03d3t04.wav
     4:26.09       46943612 B   ---   --   -----    gd81-10-03d3t05.wav
     5:38.49       59738492 B   ---   --   -----    gd81-10-03d3t06.wav
   176:14.10     1865278132 B                       (23 files)
Show Checksums
ffp
gd81-10-03d1t01.flac:612bf1a0a49ab8f8242991e6955ea47f
gd81-10-03d1t02.flac:bdc45dbefd81daa4dbd9f40bdbfe2adc
gd81-10-03d1t03.flac:e31cd47f7a181ae5827a10f6e2b380cb
gd81-10-03d1t04.flac:402d3352984410f55424dec1d8a67d7e
gd81-10-03d1t05.flac:4c1cb3e7077b75ad5a6f9920c4ae9f1d
gd81-10-03d1t06.flac:1ac67d4f1e12f732b16f5284ea4a0ef7
gd81-10-03d1t07.flac:215f358308312d7198c28457a3d4b33a
gd81-10-03d1t08.flac:e66dd3a5ab627794a95029a419943ac6
gd81-10-03d1t09.flac:c7445033b4054386a88cde781003a29f
gd81-10-03d1t10.flac:b6ec970feb3a5ac1ab5daabbfc5a8eb1
gd81-10-03d1t11.flac:feff5d66129b3364d0cb315d8f310747
gd81-10-03d2t01.flac:2ee925e21e8a605cea7ae3279117a396
gd81-10-03d2t02.flac:036509ce10ceea5eae2cb5fe4ef6032d
gd81-10-03d2t03.flac:7bb3c28a12ac8921619abf2d0cd86d5c
gd81-10-03d2t04.flac:9ac0eb4eaaedf319a924e2deac39a5c1
gd81-10-03d2t05.flac:004cd5a0463bc998a71b9f1f9ed88a2e
gd81-10-03d2t06.flac:1c2135c95bf83fba34512fab9a6ce024
gd81-10-03d3t01.flac:3b77f7c49cb36d6c84904cf1d3be316c
gd81-10-03d3t02.flac:9a01d640e24c798370444f2685fceb77
gd81-10-03d3t03.flac:fd6f8a303aa10872a16472bbeadb094d
gd81-10-03d3t04.flac:ca2f317c574eb9cfc3e20e10c124682d
gd81-10-03d3t05.flac:b6cc2d5b1d15cf8d4515e8639fd3942d
gd81-10-03d3t06.flac:85607b2e9289c3a6141cbe741257e097
flac-md5
fc34ea00c60558c126e363ec0df5f19e *gd81-10-03d1t01.flac
e3131adde3f6dd4ccc898147d7c93c51 *gd81-10-03d1t02.flac
e44685cd0a0b4dec92a27f4ce514156a *gd81-10-03d1t03.flac
90c20fcaf338ec34240ef3a076a90a6c *gd81-10-03d1t04.flac
55626d3a78602cf775f187a7eb4ca0af *gd81-10-03d1t05.flac
d6e91638a35540fff1dcb94528b2291a *gd81-10-03d1t06.flac
760aa81244c0642fcb17d6efb8afd061 *gd81-10-03d1t07.flac
63e4b750d1cdfd43e080865219da2337 *gd81-10-03d1t08.flac
2b5b9fe8c3ca684f2ded1ee6163a38ec *gd81-10-03d1t09.flac
86699c5c4e46a532afbc5b6e655e6d2b *gd81-10-03d1t10.flac
fc3979ea300dcf0fcd511e5734f29bc3 *gd81-10-03d1t11.flac
e013fa939aaa75cfa69fe8aa4a0e6660 *gd81-10-03d2t01.flac
e6dfda81360780def28bf9ea0302c77d *gd81-10-03d2t02.flac
f6386c0e1d110b519a7249b1bfe78df5 *gd81-10-03d2t03.flac
b911c0ebbce95bdd5b4154c22e179d52 *gd81-10-03d2t04.flac
9db3021c02c10a8a12ede9343f3b4145 *gd81-10-03d2t05.flac
358cac457ccac56f4884bbac6f2fb9af *gd81-10-03d2t06.flac
7f8cda366380221ec9ef0efdf39c542a *gd81-10-03d3t01.flac
a48256ce4351b330d712001168f4c70c *gd81-10-03d3t02.flac
056e2aabb0051ff00b221ed906d1e025 *gd81-10-03d3t03.flac
85700f380688c517b1a44086dfb87d92 *gd81-10-03d3t04.flac
d25c14b4048a7119f468caf8b98d0a22 *gd81-10-03d3t05.flac
8d482c9d90f72fd100288c83153c093c *gd81-10-03d3t06.flac

Comments
Add Comment
Other Sources (comments)
complete; SBD> MC> DAT>... (5) flac16/48kHz; Master... (0)
Date User Comment
12/15/2009 charliemiller The correct transfer info should read:
Dat (Sony R500) -> Samplitude Professional v10.22 -> Cool Edit Pro v2.0 -> FLAC
09/03/2018 skbarchives Correct source info is:
SBD > Cassette Master > 1st gen Reel > Dat (48k)