Browse Collections Artists Sources   Search Dates

Add Show    List Management    Help


Gov't Mule 05/14/99
The Library, Lubbock, TX
Comments Add Comment    Source Collectors    Add to Collection    Add to Want List    History
Source # 103583 Other Sources
Entered by
Checksums ffp
Disc Counts 0 / 0
Media Size
Date Circulated
Date Added
08/24/07
12/14/2009
Source Summary Source: AT 822 -> DA-P1 -> dat -> dat clone (dat provided by: Brian Watson, via Todd Trego)
Transfer: Tascam DA-20mkII -> Monster coax -> Audiophile 24/96 -> Wavelab 5.0 -> CD Wave -> FLAC (6) 
Source Information - Download Text | Download Zip
Government Mule
The Library
Lubbock, TX
May 14, 1999 (Friday)

source:  AT 822 -> DA-P1 -> dat -> dat clone
dat provided by: Brian Watson, via Todd Trego

transfer: Tascam DA-20mkII -> Monster coax -> Audiophile 24/96 -> Wavelab 5.0 -> CD Wave -> FLAC (6)
transfer: Chris Davis (8/21/07)

One Set:

Disc 1:     (63:40)
01.  (0:25)   tuning
02.  (4:46)   John the Revelator
03.  (6:40)   Mule ->
04.  (4:41)   Monkey Hill ->
05.  (1:46)   She's So Heavy Jam ->
06.  (4:19)   She Said, She Said ->
07.  (11:10)  Tomorrow Never Knows Jam*
08.  (6:59)   Goin' Out West
09.  (6:53)   Life Before Insanity
10.  (6:42)   Wandering Child
11.  (9:19)   Thorazine Shuffle

Disc 2:     (70:10)
01.  (0:44)   "With a Little Help" banter
02.  (7:28)   Devil Likes It Slow
03.  (9:36)   Gambler's Roll
04.  (7:41)   Don't Step on the Grass, Sam ->
05.  (4:22)   Thelonius Beck ->
06.  (7:35)   Drums ->
07.  (2:15)   Jam ->
08.  (7:41)   Blind Man in the Dark

Encore:
09.  (2:14)   crowd/tuning/banter
10.  (11:00)  Smokestack Lightning ->
11.  (10:14)  Third Stone from the Sun

*includes "Will the Circle Be Unbroken" tease


   length     expanded size    cdr  WAVE problems  fmt   ratio  filename
     0:25.30        4480604 B   ---   --   -----    wav  1.0000  gm1999-05-14d1t01.wav
     4:46.44       50553932 B   ---   --   -----    wav  1.0000  gm1999-05-14d1t02.wav
     6:40.41       70656476 B   ---   --   -----    wav  1.0000  gm1999-05-14d1t03.wav
     4:41.28       49634300 B   ---   --   -----    wav  1.0000  gm1999-05-14d1t04.wav
     1:46.10       18721964 B   ---   --   -----    wav  1.0000  gm1999-05-14d1t05.wav
     4:19.52       45809948 B   ---   --   -----    wav  1.0000  gm1999-05-14d1t06.wav
    11:10.07      118204508 B   ---   --   -----    wav  1.0000  gm1999-05-14d1t07.wav
     6:59.33       73989260 B   ---   --   -----    wav  1.0000  gm1999-05-14d1t08.wav
     6:53.73       73024940 B   ---   --   -----    wav  1.0000  gm1999-05-14d1t09.wav
     6:42.14       70945772 B   ---   --   -----    wav  1.0000  gm1999-05-14d1t10.wav
     9:19.71       98774636 B   ---   --   -----    wav  1.0000  gm1999-05-14d1t11.wav
     0:44.66        7916876 B   ---   --   -----    wav  1.0000  gm1999-05-14d2t01.wav
     7:28.48       79140140 B   ---   --   -----    wav  1.0000  gm1999-05-14d2t02.wav
     9:36.01      101608796 B   ---   --   -----    wav  1.0000  gm1999-05-14d2t03.wav
     7:41.56       81452156 B   ---   --   -----    wav  1.0000  gm1999-05-14d2t04.wav
     4:22.00       46216844 B   ---   --   -----    wav  1.0000  gm1999-05-14d2t05.wav
     7:35.62       80407868 B   ---   --   -----    wav  1.0000  gm1999-05-14d2t06.wav
     2:15.42       23912828 B   ---   --   -----    wav  1.0000  gm1999-05-14d2t07.wav
     7:41.70       81485084 B   ---   --   -----    wav  1.0000  gm1999-05-14d2t08.wav
     2:14.71       23804636 B   ---   --   -----    wav  1.0000  gm1999-05-14d2t09.wav
    11:00.37      116511068 B   ---   --   -----    wav  1.0000  gm1999-05-14d2t10.wav
    10:14.19      108354332 B   ---   --   -----    wav  1.0000  gm1999-05-14d2t11.wav
   134:41.50     1425606968 B                            1.0000  (22 files)
Show Checksums
ffp

gm1999-05-14d1t01.flac:9732fbe5bcf3fec2e74c615f8e02aa26
gm1999-05-14d1t02.flac:14ef952edf60f5a2b59fcec21b2b4400
gm1999-05-14d1t03.flac:9cac40aea88efab8cc157923bf8a45cf
gm1999-05-14d1t04.flac:e24e1f06cffa99e71afeeed01cbd2676
gm1999-05-14d1t05.flac:01836942e3c4913705b7def09e9d7c69
gm1999-05-14d1t06.flac:614732a4f8d4e32ae1ecbec7da64ac82
gm1999-05-14d1t07.flac:66afe6ba328b4e7af2194bf86dfc7ce5
gm1999-05-14d1t08.flac:f12dd567fa8b9da6d91b70d9f689e27d
gm1999-05-14d1t09.flac:a3984f6b9bb3dd1b8ee8b58868a14374
gm1999-05-14d1t10.flac:43de6c513e8fdbbdc62757efc40503e0
gm1999-05-14d1t11.flac:b8779899acb060652622e33f89d06b71
gm1999-05-14d2t01.flac:1f6e8b2c11f1c6a9ca7dcb159aa32b2e
gm1999-05-14d2t02.flac:c745be5871b809231f7239e9814680cd
gm1999-05-14d2t03.flac:bc737b590a49479b49d6105d18d2246e
gm1999-05-14d2t04.flac:1667ecdb4abbefe36d7d045052f12176
gm1999-05-14d2t05.flac:4449a9677d20317dae12ef22f7264297
gm1999-05-14d2t06.flac:2f784d990c6a665f605d75d3d87e515d
gm1999-05-14d2t07.flac:8233f5678bf6eca490ffc79a21c81d50
gm1999-05-14d2t08.flac:f402f149942c96e5013cc0a9e739b82d
gm1999-05-14d2t09.flac:7a0d8375802ca8f142bcff6213230f95
gm1999-05-14d2t10.flac:43d6cf111e3cf946449f6083323702ce
gm1999-05-14d2t11.flac:38e59193065ec5b56f8bd6dce5b0eb2b

Comments
Add Comment
Date User Comment