Browse Collections Artists Sources   Search Dates

Add Show    List Management    Help


Grateful Dead 10/06/81
Rainbow Theater, London, England
Comments Add Comment    Source Collectors    Add to Collection    Add to Want List    History
Source # 103627 Other Sources
Entered by Gary Field
Checksums ffp , flac-md5
Disc Counts 2 / 3
Media Size
Date Circulated
Date Added
12/15/2009
12/15/2009
Source Summary flac16; Recording Info: SBD -> Cassette Master -> Cassette -> Dat; Transfer Info: Dat (Sony R500) -> Samplitude Professional v10.22 -> Cool Edit Pro v2.0 -> FLAC; All Transfers and Mastering By Charlie Miller 
  Archive
Source Information - Download Text | Download Zip
Grateful Dead - October 6, 1981
Rainbow Theatre - London, England

Recording Info:
SBD -> Cassette Master -> Cassette -> Dat


Updated Transfer Info:
Dat (Sony R500) -> Samplitude Professional v10.22 -> Cool Edit Pro v2.0 -> FLAC
(Had been marked Dat (Sony R500) -> Samplitude Professional v10.22 -> FLAC)
(3 Discs Audio / 2 Discs FLAC)

All Transfers and Mastering By Charlie Miller
[email protected]
December 14, 2009

Notes:
-- Set 2 disc change is seamless
-- Tape flip in High Time
-- Blues For Allah theme during Space
-- Tape runs out towards end of Brokedown Palace
-- One minute of dead air removed to fit first set onto one disc
-- Thanks to Joe B. Jones for his help with the pitch correction

Set 1:
d1t01 - Tuning
d1t02 - Shakedown Street ->
d1t03 - New Minglewood Blues
d1t04 - It Must Have Been The Roses
d1t05 - Little Red Rooster
d1t06 - Althea
d1t07 - Me And My Uncle ->
d1t08 - Mexicali Blues
d1t09 - Never Trust A Woman ->
d1t10 - Cumberland Blues
d1t11 - Looks Like Rain ->
d1t12 - Might As Well

Set 2:
d2t01 - Man Smart (Woman Smarter)
d2t02 - High Time
d2t03 - Estimated Prophet ->
d2t04 - He's Gone ->
d2t05 - Drums ->
d3t01 - Space ->
d3t02 - The Wheel ->
d3t03 - Sugar Magnolia ->
d3t04 - Stella Blue ->
d3t05 - Good Lovin'

Encore:
d3t06 - Sunshine Daydream ->
d3t07 - Brokedown Palace


SHNTOOL OUTPUT:
    length     expanded size    cdr  WAVE problems  filename
     0:34.74        6171692 B   ---   --   -----    gd81-10-06d1t01.wav
    11:59.24      126888092 B   ---   --   -----    gd81-10-06d1t02.wav
     7:45.43       82127180 B   ---   --   -----    gd81-10-06d1t03.wav
     6:31.07       68988908 B   ---   --   -----    gd81-10-06d1t04.wav
    10:02.44      106296332 B   ---   --   -----    gd81-10-06d1t05.wav
     8:24.57       89039708 B   ---   --   -----    gd81-10-06d1t06.wav
     2:54.10       30717164 B   ---   --   -----    gd81-10-06d1t07.wav
     5:22.24       56857292 B   ---   --   -----    gd81-10-06d1t08.wav
     7:23.39       78236972 B   ---   --   -----    gd81-10-06d1t09.wav
     5:01.26       53157596 B   ---   --   -----    gd81-10-06d1t10.wav
     9:22.38       99226220 B   ---   --   -----    gd81-10-06d1t11.wav
     4:28.00       47275244 B   ---   --   -----    gd81-10-06d1t12.wav
     7:04.42       74892428 B   ---   --   -----    gd81-10-06d2t01.wav
     8:50.64       93642572 B   ---   --   -----    gd81-10-06d2t02.wav
    13:54.15      147152924 B   ---   --   -----    gd81-10-06d2t03.wav
    14:40.40      155326124 B   ---   --   -----    gd81-10-06d2t04.wav
    10:18.17      109055228 B   ---   --   -----    gd81-10-06d2t05.wav
    11:13.44      118820732 B   ---   --   -----    gd81-10-06d3t01.wav
     7:24.30       78392204 B   ---   --   -----    gd81-10-06d3t02.wav
     4:58.22       52618988 B   ---   --   -----    gd81-10-06d3t03.wav
     9:57.00      105310844 B   ---   --   -----    gd81-10-06d3t04.wav
     8:34.10       90693164 B   ---   --   -----    gd81-10-06d3t05.wav
     2:33.48       27102140 B   ---   --   -----    gd81-10-06d3t06.wav
     5:36.04       59279852 B   ---   --   -----    gd81-10-06d3t07.wav
   184:55.47     1957269600 B                       (24 files)
Show Checksums
ffp
gd81-10-06d1t01.flac:a4cbade8ecf3a58e3034e5123373e6d6
gd81-10-06d1t02.flac:cff63c5f46bc26e7871579498badc88b
gd81-10-06d1t03.flac:ddb765375fde6120985051a25c070b91
gd81-10-06d1t04.flac:8dfd5c1212aee27e25a9e3989c4da55b
gd81-10-06d1t05.flac:fc1eb222b73ab067103627c174f15c75
gd81-10-06d1t06.flac:d5c364b72b44cb9a4ea5bb41e2f31ac6
gd81-10-06d1t07.flac:537aa86cd07a271b2411ef819bf4ff47
gd81-10-06d1t08.flac:790c130de50a0ce7bc5c99777191f970
gd81-10-06d1t09.flac:656f8b400c75b4f7afc1b36223ab4e55
gd81-10-06d1t10.flac:96c8a30afead52aa3ac37fe0afc8e058
gd81-10-06d1t11.flac:6297b0b2e66cb1d835c3ea916a2aaf7e
gd81-10-06d1t12.flac:a7401cf114493fe5c150c6ba2c77b29c
gd81-10-06d2t01.flac:9d9ab183646c0eedde302e3a32a2eabf
gd81-10-06d2t02.flac:43106a34cf5202eae6e0a3fa0c2b0e8a
gd81-10-06d2t03.flac:bcb70b2c75cedfe4a44ed0b2abf7f4c0
gd81-10-06d2t04.flac:c296baf5517b0028a3989e54afe0c258
gd81-10-06d2t05.flac:5c621eb208a5b8ab2d6aab489500e43e
gd81-10-06d3t01.flac:d110a4fc8b8b2490a9b3a6d76386d22c
gd81-10-06d3t02.flac:c9d1f63019924c79a4567893178dbf5b
gd81-10-06d3t03.flac:6bb4bebf3d2d5e932b883d6a93da6114
gd81-10-06d3t04.flac:cb72dfc1d1087cceeb5daef2b8c3abed
gd81-10-06d3t05.flac:97d941f9a7b0280a9623b6470b42e632
gd81-10-06d3t06.flac:9bae2b2095542cd5456a3a14d885a895
gd81-10-06d3t07.flac:f7329967b74c330a7b2fae1578d96c56
flac-md5
d501f6c3ed674d0d50412df24438d08a *gd81-10-06d1t01.flac
be7cf064b3c8c9c5bcf76da97dc8dc0c *gd81-10-06d1t02.flac
b774c3b8f36e0c5ed594eea0056933e9 *gd81-10-06d1t03.flac
c062e809056a91f06c7dd3087b3c2ff2 *gd81-10-06d1t04.flac
3cec701b65b4997b824dd0f3a8698fd7 *gd81-10-06d1t05.flac
0685f8ca9613ea72068182611a096eb5 *gd81-10-06d1t06.flac
d1e021cb0d8ad2ce704f527bad0be846 *gd81-10-06d1t07.flac
1bfa1c6dfbdc7118975d9fdcad54803d *gd81-10-06d1t08.flac
10f957d418f650859de2fa5a0506292c *gd81-10-06d1t09.flac
3f575fef9539c0e9b956e6803ee5f97e *gd81-10-06d1t10.flac
51942929a5239041454ce64b932049ea *gd81-10-06d1t11.flac
d89c6625198bac408ffb3033878350cc *gd81-10-06d1t12.flac
84c4b0630d990defe02556c3ab6ca40d *gd81-10-06d2t01.flac
1fe4312c19785deeb83c20d46513ade9 *gd81-10-06d2t02.flac
288372ae77425e1772e92adfe58a8104 *gd81-10-06d2t03.flac
1d726003ec84a55f556de48d4e65ccfd *gd81-10-06d2t04.flac
58189d7abf1fd867fca45e92f4b80786 *gd81-10-06d2t05.flac
97776a566d49f797dbff23aec5db5ef0 *gd81-10-06d3t01.flac
0cad821a54c50827d07eb5a3ec0afb42 *gd81-10-06d3t02.flac
31c21a211e9e8facb55717c3ffbacd0b *gd81-10-06d3t03.flac
760155c14b263ac1f67cafe98cb1dbbf *gd81-10-06d3t04.flac
74b155f105a118747d11a99b851d419e *gd81-10-06d3t05.flac
6d25b8f47cf84ff8ec27da5fb0d365f6 *gd81-10-06d3t06.flac
eefb4e1b5d660e1f765a2ec4fa10ec97 *gd81-10-06d3t07.flac

Comments
Add Comment
Other Sources (comments)
Master Soundboard Cassette... (4) flac24; AUD 2nd Set... (0) flac16; AUD 2nd Set... (1) flac16; Recording... (0) flac16; Soundboard;... (0) flac16; Audience... (0) flac24; Audience... (1) flac/176.4kHz;... (0)
Date User Comment
12/15/2009 charliemiller The correct transfer info should read:
Dat (Sony R500) -> Samplitude Professional v10.22 -> Cool Edit Pro v2.0 -> FLAC