Browse Collections Artists Sources   Search Dates

Add Show    List Management    Help


Grateful Dead 08/22/87
Calaveras County Fairgrounds, Angels Camp, CA
Comments Add Comment    Source Collectors    Add to Collection    Add to Want List    History
Source # 103628 Other Sources
Entered by dr.unclear
Checksums ffp , flac-md5
Disc Counts 2 / 2
Media Size
Date Circulated
Date Added
12/15/2009
12/15/2009
Source Summary flac16; Recording Info: SBD -> PCM; Transfer Info: PCM -> Peak -> Samplitude Professional v10.1 -> FLAC; All Transfers and Mastering By Charlie Miller 
  Archive
Source Information - Download Text | Download Zip
Grateful Dead - August 22, 1987
Calavaras County Fairgrounds - Angel's Camp, CA

Recording Info:
SBD -> PCM

Transfer Info:
PCM -> Peak -> Samplitude Professional v10.1 -> FLAC
(2 Discs Audio / 2 Discs FLAC)

All Transfers and Mastering By Charlie Miller
[email protected]
December 12, 2008

Notes:
-- Schoolgirl and Midnight Hour with Carlos Santana

Set 1:
d1t01 - Touch Of Grey ->
d1t02 - Little Red Rooster
d1t03 - Tons Of Steel
d1t04 - Friend Of The Devil
d1t05 - My Brother Esau
d1t06 - Tennessee Jed
d1t07 - When I Paint My Masterpiece ->
d1t08 - Bird Song
d1t09 - Good Morning Little Schoolgirl
d1t10 - In The Midnight Hour

Set 2:
d2t01 - Hell In A Bucket
d2t02 - When Push Comes To Shove
d2t03 - Estimated Prophet ->
d2t04 - Eyes Of The World ->
d2t05 - Drums ->
d2t06 - Space ->
d2t07 - The Other One ->
d2t08 - Goin' Down The Road Feeling Bad ->
d2t09 - Throwing Stones ->
d2t10 - Turn On Your Lovelight

Encore:
d2t11 - U.S. Blues


SHNTOOL OUTPUT:
    length     expanded size   cdr  WAVE problems filename
     6:09.62       65237468    ---   --   -----   gd87-08-22d1t01.wav
    10:02.52      106315148    ---   --   -----   gd87-08-22d1t02.wav
     5:36.35       59352764    ---   --   -----   gd87-08-22d1t03.wav
    10:08.44      107354732    ---   --   -----   gd87-08-22d1t04.wav
     5:21.72       56793788    ---   --   -----   gd87-08-22d1t05.wav
     8:26.59       89397212    ---   --   -----   gd87-08-22d1t06.wav
     5:19.67       56429228    ---   --   -----   gd87-08-22d1t07.wav
    10:16.12      108690668    ---   --   -----   gd87-08-22d1t08.wav
     7:13.02       76385948    ---   --   -----   gd87-08-22d1t09.wav
     6:07.31       64811756    ---   --   -----   gd87-08-22d1t10.wav
     7:13.63       76529420    ---   --   -----   gd87-08-22d2t01.wav
     5:46.20       61081484    ---   --   -----   gd87-08-22d2t02.wav
    10:58.15      116106524    ---   --   -----   gd87-08-22d2t03.wav
     9:13.17       97589228    ---   --   -----   gd87-08-22d2t04.wav
     5:58.14       63184172    ---   --   -----   gd87-08-22d2t05.wav
     5:42.39       60420572    ---   --   -----   gd87-08-22d2t06.wav
     4:02.65       42841724    ---   --   -----   gd87-08-22d2t07.wav
     6:17.53       66627500    ---   --   -----   gd87-08-22d2t08.wav
     8:57.20       94773884    ---   --   -----   gd87-08-22d2t09.wav
     5:54.66       62600876    ---   --   -----   gd87-08-22d2t10.wav
     5:17.30       55989404    ---   --   -----   gd87-08-22d2t11.wav
   150:05.13     1588513500 B                     (totals for 21 files)
Show Checksums
ffp
gd87-08-22d1t01.flac:633fad22c20374c4e5e04b271dfbbc93
gd87-08-22d1t02.flac:d1acb3e7ec0ed0ced2c7527dc8161ada
gd87-08-22d1t03.flac:38363bc0a5966628aebd1f6fe1379002
gd87-08-22d1t04.flac:e7034f56a669c22a6eb5acf37bf9d3d1
gd87-08-22d1t05.flac:b867d1b67df3adbb75ca2154e63e57ae
gd87-08-22d1t06.flac:6d542496696be2868ee4012b90cbfdda
gd87-08-22d1t07.flac:c3b80cf7c0c71ebf6142ffd2fcb88870
gd87-08-22d1t08.flac:90928c3635ddb6d461ffd07d67b621a5
gd87-08-22d1t09.flac:b9bdb21608f6e7856199f514a7900f35
gd87-08-22d1t10.flac:99cc3de085ec37228aa88fee0e4e6fa2
gd87-08-22d2t01.flac:63b20468b8af821a8892ef453dd591a7
gd87-08-22d2t02.flac:e71e922fab4c57cdc7b213f80f87201b
gd87-08-22d2t03.flac:7cda4bd948123958a733d4c6a1f90432
gd87-08-22d2t04.flac:f2d3f63b48c52969fc1f91356545d346
gd87-08-22d2t05.flac:b802a9a2a090f5481bb17e4ff821b23b
gd87-08-22d2t06.flac:118a8e39ebc2a11634557ded7cee42ee
gd87-08-22d2t07.flac:b0022ba515afce87e46e523c1c191837
gd87-08-22d2t08.flac:0600180487a40dfcc8d2a0adb230762f
gd87-08-22d2t09.flac:7ef345e23cbae22be65cc5e46172300b
gd87-08-22d2t10.flac:4b5220f2fc54e09bcc97b2f664b962eb
gd87-08-22d2t11.flac:14f6bc9aea2140dd1a6fe5e5b2f22c2e
flac-md5
a19ed9d65d541abffa7b7a924937cecd *gd87-08-22d1t01.flac
e8ed055b4390b9bdb3bb134e2cd129d0 *gd87-08-22d1t02.flac
cd07b157e6878661db931185ed6486b7 *gd87-08-22d1t03.flac
4bedf7faaee3b04a31e0a8c0607cfa30 *gd87-08-22d1t04.flac
4959b1ab4b1bc4ff625bc47c4888acb3 *gd87-08-22d1t05.flac
be247e6530dba2bd3ef793b3e3f1481a *gd87-08-22d1t06.flac
a2cba4e1c79ed70911a952b3c922c8a3 *gd87-08-22d1t07.flac
40fcb0f079dc82fcfcc0300cf3537090 *gd87-08-22d1t08.flac
05985a599409add375a95ad8122bb09e *gd87-08-22d1t09.flac
4fe52e68d37d8ddbbb29a4d02dd60f75 *gd87-08-22d1t10.flac
89c2318fb9ff3126e05b98c5dcb4a84a *gd87-08-22d2t01.flac
820e3a652822d211b457ee87adaf1af2 *gd87-08-22d2t02.flac
749f0fca76b4023182aef841ccecf7da *gd87-08-22d2t03.flac
19bbd603735755876fae96d399d70a29 *gd87-08-22d2t04.flac
75d128302793dad82562c8090e0f705a *gd87-08-22d2t05.flac
ef97864d2d54a87a94f49ec545266608 *gd87-08-22d2t06.flac
17c798d992ca1ae0bdd21b85158be0b8 *gd87-08-22d2t07.flac
039a1bb16a7d3c7924f06fb086ddce92 *gd87-08-22d2t08.flac
a2835e2a21ef8cab87606bfedc1e8014 *gd87-08-22d2t09.flac
9ba086c242baa088d150ffb17a6c4127 *gd87-08-22d2t10.flac
9f57db29ff932944849c6d862f39f888 *gd87-08-22d2t11.flac

Comments
Add Comment
Other Sources (comments)
updated source: SBD> Master... (4) updated source: SBD> Master... (5) flac24; Recording... (0) flac16; Recording... (0) flac16; Recording... (0)
Date User Comment