Browse Collections Artists Sources   Search Dates

Add Show    List Management    Help


Grateful Dead 07/13/94
Franklin County Airport, Highgate, VT
Comments Add Comment    Source Collectors    Add to Collection    Add to Want List    History
Source # 103630 Other Sources
Entered by dr.unclear
Checksums ffp , flac-md5
Disc Counts 2 / 3
Media Size
Date Circulated
Date Added
12/15/2009
12/15/2009
Source Summary flac16; Source: Nakamichi 300s (with cp1 caps) > Sony WM-D6 > mac (Maxell XLII C90 x 2) Lineage: mac > Nakamichi BX-125E > EMU 0202 > Wavelab 6 > wav 24/96 > Adobe Audition 1.5 > Wavelab 6 with iZotope Ozone 4 > iZotope RX Advanced > wav 16/44.1 > Cd Wave > TLH > flac 16 taped by John Bleich, OTS just right of the soundboard 
  Archive
Source Information - Download Text | Download Zip
Grateful Dead
Franklin County Airport
Highgate, VT
07/13/1994

Source: Nakamichi 300s (with cp1 caps) > Sony WM-D6 > mac (Maxell XLII  C90 x 2)
Lineage: mac > Nakamichi BX-125E > EMU 0202 > Wavelab 6 > wav 24/96 > Adobe Audition 1.5 >
              Wavelab 6 with iZotope Ozone 4 > iZotope RX Advanced > wav 16/44.1 > Cd Wave >
              TLH > flac 16

              taped by John Bleich, OTS just right of the soundboard


Disc 1
set I

01   Let The Good Times Roll
02   Jack Straw
03   tuning
04   Althea
05   tuning
06   Queen Jane Approximately
07   Loser
08   tuning
09   It's All Over Now
10   tuning
11   Tennessee Jed
12   tuning
13   Let It Grow


Disc 2
set II


01   Truckin' >
02   New Speedway Boogie
03   Way To Go Home
04   Corrina >
05   Uncle John's Band >
06   Drums >
07   Space >


Disc 3
set II cont'd

01   I Want To Tell You >
02   I Need A Miracle >
03   Standing On The Moon >
04   Sugar Magnolia

encore

05   U.S. Blues


Notes:

- tape flips after "It's All Over Now" and "Sugar Magnolia" crossfaded.
- tape flip in "Drums" and small cut in "Space" patched with AKG 460B/ck61 > custom pre-amp > Sony D7 (shnid 88931)
- seamless transition between discs 2 and 3


Comments:

Youssou N'Dour opened


Many thanks to John for lending me his masters


transferred, edited and mastered
SIRMick
December 2009


shntool output:

    length     expanded size    cdr  WAVE problems  fmt   ratio  filename
     4:24.31       46642556 B   ---   --   ---xx   flac  0.6114  gd1994-07-13d1t01.flac
     6:39.16       70421276 B   ---   --   ---xx   flac  0.6388  gd1994-07-13d1t02.flac
     1:51.07       19596908 B   ---   --   ---xx   flac  0.5585  gd1994-07-13d1t03.flac
     6:41.09       70757612 B   ---   --   ---xx   flac  0.6371  gd1994-07-13d1t04.flac
     1:08.14       12028172 B   ---   --   ---xx   flac  0.5677  gd1994-07-13d1t05.flac
     6:35.21       69727436 B   ---   --   ---xx   flac  0.6380  gd1994-07-13d1t06.flac
     6:46.35       71700764 B   ---   --   ---xx   flac  0.6412  gd1994-07-13d1t07.flac
     1:20.34       14192012 B   ---   --   ---xx   flac  0.5570  gd1994-07-13d1t08.flac
     6:41.36       70821116 B   ---   --   ---xx   flac  0.6448  gd1994-07-13d1t09.flac
     1:43.00       18169244 B   ---   --   ---xx   flac  0.5560  gd1994-07-13d1t10.flac
     7:14.11       76583516 B   ---   --   ---xx   flac  0.6429  gd1994-07-13d1t11.flac
     2:15.32       23889308 B   ---   --   ---xx   flac  0.5578  gd1994-07-13d1t12.flac
    15:16.25      161641244 B   ---   --   ---xx   flac  0.6410  gd1994-07-13d1t13.flac
     7:14.24       76614092 B   ---   --   ---xx   flac  0.6198  gd1994-07-13d2t01.flac
     6:41.51       70856396 B   ---   --   ---xx   flac  0.6140  gd1994-07-13d2t02.flac
     6:30.40       68890124 B   ---   --   ---xx   flac  0.6188  gd1994-07-13d2t03.flac
    10:11.18      107822780 B   ---   --   ---xx   flac  0.6208  gd1994-07-13d2t04.flac
    10:28.71      110946236 B   ---   --   ---xx   flac  0.6158  gd1994-07-13d2t05.flac
    12:42.05      134428604 B   ---   --   ---xx   flac  0.5773  gd1994-07-13d2t06.flac
    16:30.35      174718364 B   ---   --   ---xx   flac  0.5638  gd1994-07-13d2t07.flac
     4:18.50       45628844 B   ---   --   ---xx   flac  0.6388  gd1994-07-13d3t01.flac
     4:06.54       43521452 B   ---   --   ---xx   flac  0.6410  gd1994-07-13d3t02.flac
     8:08.01       86085596 B   ---   --   ---xx   flac  0.6193  gd1994-07-13d3t03.flac
     9:07.43       96591980 B   ---   --   ---xx   flac  0.6290  gd1994-07-13d3t04.flac
     5:29.18       58077980 B   ---   --   ---xx   flac  0.6422  gd1994-07-13d3t05.flac
   170:06.06     1800353612 B                            0.6166  (25 files)
Show Checksums
ffp
gd1994-07-13d1t01.flac:689d6298b1d576e5895ea7abe46fffc1
gd1994-07-13d1t02.flac:3837b93f8f2713b2eaabb89fe227b767
gd1994-07-13d1t03.flac:c909c7175ef600222600103a911b934a
gd1994-07-13d1t04.flac:a5eed2b98a6045262ccdab291e07dc5a
gd1994-07-13d1t05.flac:8985878bcadff226f25fa25bbcb46761
gd1994-07-13d1t06.flac:1d051f8ab7af09094b83614a20487070
gd1994-07-13d1t07.flac:728f63865b5acbb2fdf6624c8acce8a3
gd1994-07-13d1t08.flac:71124e776768a3ef1a957b4011cbabb1
gd1994-07-13d1t09.flac:f3fe34b545a1f59fef7bef51d3ccf55e
gd1994-07-13d1t10.flac:33c0026087655060548ee3d4cbb59a61
gd1994-07-13d1t11.flac:26d6eb95e2b685e22df4c39a18535f59
gd1994-07-13d1t12.flac:803af2582a61a0218d6d786608ba22cc
gd1994-07-13d1t13.flac:c16b20f9f623ad58ca024c10a2a3d70a
gd1994-07-13d2t01.flac:535cbacd65ff967128bbad2179a9ebbe
gd1994-07-13d2t02.flac:29447244db109f0e53b9e369c05b3458
gd1994-07-13d2t03.flac:8570acd89df6c425f74fab18c970fda7
gd1994-07-13d2t04.flac:0bf3d1b8c2547b819d12d64502fd09e5
gd1994-07-13d2t05.flac:4713dabd4be6b3544d33cb1e1b3a2959
gd1994-07-13d2t06.flac:f6ad7f2b2c446187c1e28d7e3d4a5874
gd1994-07-13d2t07.flac:713364c293a926f0a784f3a24ab1f941
gd1994-07-13d3t01.flac:f7562b9c9309a8259ac8a6667f930adc
gd1994-07-13d3t02.flac:a3fc9e1cfb41c9a2c08e105020d58c5a
gd1994-07-13d3t03.flac:0cde36d7518fd43fc61f380ecc0a2b32
gd1994-07-13d3t04.flac:6a758a4c78cc82b0390f8d8deaea5d63
gd1994-07-13d3t05.flac:823476910ecb60c17022acd6d9e1ed0b
flac-md5
5695e0f1ab536394c56bbdd7078f193b *gd1994-07-13d1t01.flac
74af54ae71821b129b2911156c8f2bf2 *gd1994-07-13d1t02.flac
18733dc7d86a963aa47f13ba4d9e1fdb *gd1994-07-13d1t03.flac
0603137d916d11aecf74b55229d2103f *gd1994-07-13d1t04.flac
eb930ae00bee56c93e8e024c8ff5952f *gd1994-07-13d1t05.flac
0b844864b37f66e93f1bc7a53bb3dbbf *gd1994-07-13d1t06.flac
814a67272a177c1946d9ec7871e2e186 *gd1994-07-13d1t07.flac
695706e451c7298bf1aedcd6334fea69 *gd1994-07-13d1t08.flac
c14f92486ff6ef3e7daa68d682d219e9 *gd1994-07-13d1t09.flac
9efc7062e9b25f6cdeb6e4ba3a1af4af *gd1994-07-13d1t10.flac
1b5c16204a213e1f3df7719c680fdcd8 *gd1994-07-13d1t11.flac
4984713492e06033021a223537a076e4 *gd1994-07-13d1t12.flac
1960e81c9bda9c9081913d56543a60e7 *gd1994-07-13d1t13.flac
ff05f247244866e9c193cca306182fea *gd1994-07-13d2t01.flac
5288ee3534c20b0aa5ac84f7e1a44838 *gd1994-07-13d2t02.flac
ca609029c88f84dc6a3cd9000609fa78 *gd1994-07-13d2t03.flac
a59d023e032dc81c48520e5752de7411 *gd1994-07-13d2t04.flac
ae50fd7575337bfb0968d0c0bbee86e2 *gd1994-07-13d2t05.flac
2a4d2d5f44fb6d95f00973957f5d58d8 *gd1994-07-13d2t06.flac
19aaf549e42b6ff2c1f9dee9032ce921 *gd1994-07-13d2t07.flac
140b55ddbd7cce2be06ecd7e95ec04a2 *gd1994-07-13d3t01.flac
c93c856dd9a0b172f636a4753b3bf292 *gd1994-07-13d3t02.flac
1533d2bd570331b8c7af1299eb28ef5a *gd1994-07-13d3t03.flac
7edc82b26a4dbf1725ee8fd1a7de6847 *gd1994-07-13d3t04.flac
10eacb8fba4585d7e67a5faedc923e14 *gd1994-07-13d3t05.flac

Comments
Add Comment
Other Sources (comments)
AKG-460-CKIX>Sony D-7>CDR;... (0) M:D>SHN digital transfer... (0) Source: Schoeps CMC 44... (0) flac16; Source:... (0) flac16/48; Schoeps... (0) flac16; AKG... (0) flac16; Master: OTS... (0) flac16; source: FOB... (0) flac16/48kHz;... (0)
Date User Comment