Browse Collections Artists Sources   Search Dates

Add Show    List Management    Help


Drive-By Truckers 03/27/08
The Fillmore @ TLA, Philadelphia, PA
Comments Add Comment    Source Collectors    Add to Collection    Add to Want List    History
Source # 103753 Other Sources
Entered by Kyle pike
Checksums ff
Disc Counts 0 / 0
Media Size
Date Circulated
Date Added
04/13/08
12/16/2009
Source Summary [24 Bit] Soundfield ST350 > SD744T (Chris Imburgia) 
Source Information - Download Text | Download Zip
Drive-By Truckers
March 27, 2008
TLA Fillmore
Philadelphia, PA

Source: Soundfield ST350 (Balcony|DFC|B Format)-> SD744T (24|48)-> Nuendo 3 [Stereo Decode (Cardioid|90)+(Blumlein|90)]-> CD Wave-> Wavelab (16|44)-> FLAC Frontend (Level 6)-> FLAC
Taper: Chris Imburgia

01. Goode's Field Road
02. Ghost to Most
03. Righteous Path
04. Where the Devil Don't Stay
05. Ronnie & Neil
06. Three Dimes Down
07. The Company I Keep
08. Plastic Flowers
09. Women Without Whiskey
10. I'm Sorry Huston
11. Sink Hole
12. Uncle Frank
13. Two Daughters
14. Daddy Needs a Drink
15. Lisa's Birthday
16. The Living Bubba [1]
17. Self Destructive Zones [1]
18. Dead, Drunk and Naked [1]
19. Guitar Man Upstairs [1]
20. Puttin' People On The Moon [1]
21. E: Marry Me [1]
22. E: Let There Be Rock [1]
23. E: Lookout Mountain [1]
24. E: Buttholeville> State Trooper> Buttholeville [1]

Notes:
---------------------------------
[1] Patched with DPA 4022s -> SD722 -> Wavelab 5 -> CD Wave -> FLAC
FOB, DFC - Clamped to lower part of railing on the balcony
Recorded and transfered by Tom Huster ([email protected])


Sector Boundary Verification
--------------------------------------
  length     expanded size   cdr  WAVE problems filename
     5:42.52       60451148    ---   --   ---xx   dbt2008-03-27t01.flac
     4:44.40       50191724    ---   --   ---xx   dbt2008-03-27t02.flac
     4:24.57       46703708    ---   --   ---xx   dbt2008-03-27t03.flac
     5:15.18       55608380    ---   --   ---xx   dbt2008-03-27t04.flac
     5:25.66       57485276    ---   --   ---xx   dbt2008-03-27t05.flac
     3:21.72       35625788    ---   --   ---xx   dbt2008-03-27t06.flac
     7:34.37       80172668    ---   --   ---xx   dbt2008-03-27t07.flac
     6:28.01       68445596    ---   --   ---xx   dbt2008-03-27t08.flac
     4:33.63       48305420    ---   --   ---xx   dbt2008-03-27t09.flac
     3:15.13       34428620    ---   --   ---xx   dbt2008-03-27t10.flac
     4:41.37       49655468    ---   --   ---xx   dbt2008-03-27t11.flac
     7:53.47       83547788    ---   --   ---xx   dbt2008-03-27t12.flac
     3:30.13       37074620    ---   --   ---xx   dbt2008-03-27t13.flac
     4:42.49       49860092    ---   --   ---xx   dbt2008-03-27t14.flac
     3:29.32       36942908    ---   --   ---xx   dbt2008-03-27t15.flac
     6:49.19       72192332    ---   --   ---xx   dbt2008-03-27t16.flac
     3:54.49       41392892    ---   --   ---xx   dbt2008-03-27t17.flac
     5:07.23       54208940    ---   --   ---xx   dbt2008-03-27t18.flac
     3:36.33       38180060    ---   --   ---xx   dbt2008-03-27t19.flac
    12:10.62      128917868    ---   --   ---xx   dbt2008-03-27t20.flac
     5:47.18       61253180    ---   --   ---xx   dbt2008-03-27t21.flac
     5:55.63       62770220    ---   --   ---xx   dbt2008-03-27t22.flac
     5:11.47       54970988    ---   --   ---xx   dbt2008-03-27t23.flac
    10:46.20      114001484    ---   --   ---xx   dbt2008-03-27t24.flac
   134:23.31     1422387168 B                     (totals for 24 files, 0.5418 overall compression ratio)
Show Checksums
ff
dbt2008-03-27t24.flac:8425087f23b1f6443c29ef2c58f9b0a6
dbt2008-03-27t01.flac:524ccb721e64cdff63687b8d1d320d3c
dbt2008-03-27t02.flac:3749b280639dcb484e596763c71c621e
dbt2008-03-27t03.flac:7f0899a9a0b5cb2592631a3dc8eefde3
dbt2008-03-27t04.flac:0b9c2e2250778a984e3ffc26952c7c7d
dbt2008-03-27t05.flac:44a56c6983cac774c05bcbf4615bdbbd
dbt2008-03-27t06.flac:8be08cfa87151de43a5895a7710f9a55
dbt2008-03-27t07.flac:f81309aa5950ee1aaa8c8c0255762086
dbt2008-03-27t08.flac:21747102699db31cf15ebf1ccfe8d5c4
dbt2008-03-27t09.flac:8bc066677a4945fe40a4e02d7545cd9d
dbt2008-03-27t10.flac:b8e8056f85dbf89bb12d754da2d9947c
dbt2008-03-27t11.flac:dee31528766fe63a147cb4e4afd2138c
dbt2008-03-27t12.flac:dc055b75c88f689bc4929622ad95f68b
dbt2008-03-27t13.flac:f224dfc169ea011bafd6c8a79c10ed98
dbt2008-03-27t14.flac:53779d2d01cbe1837c1feea5ef8533b2
dbt2008-03-27t15.flac:ea2d13b612dcccb9ba1424b0b65fe78c
dbt2008-03-27t16.flac:7358b3018d3f89942817624e54e46c1a
dbt2008-03-27t17.flac:426451a0937aa59e0ab7566d7e11b255
dbt2008-03-27t18.flac:50a1b02077bfb14060e5c1356a2528a8
dbt2008-03-27t19.flac:03d198a57f16968bb20b68892a81daf2
dbt2008-03-27t20.flac:c7d5b8f1ae0dea518c6770739c15e689
dbt2008-03-27t21.flac:231f99367d981dba0a04315012fdb72f
dbt2008-03-27t22.flac:6e8cf38aa68b274c8d68c7a23caf3b7a
dbt2008-03-27t23.flac:039911dd6219a59ddc24e95c726926fa

Comments
Add Comment
Other Sources (comments)
[16 Bit] DPA 4022 > SD722... (0)
Date User Comment