Browse Collections Artists Sources   Search Dates

Add Show    List Management    Help


Drive-By Truckers 03/26/08
Terminal 5, New York, NY
Comments Add Comment    Source Collectors    Add to Collection    Add to Want List    History
Source # 103754 Other Sources
Entered by Kyle pike
Checksums ffp
Disc Counts 0 / 0
Media Size
Date Circulated
Date Added
04/12/08
12/16/2009
Source Summary Soundfield ST350 > SD744T (Chris Imburgia) 
Source Information - Download Text | Download Zip
Drive-By Truckers
March 26, 2008
Terminal 5
New York, NY

Source: Soundfield ST350 (FOB|DFC|B Format)-> SD744T (16|48)-> Nuendo 3 (Stereo Decode Midway between Cardioid & Hypercardioid|90)-> CD Wave-> Wavelab (Normalize|16|44)-> FLAC Frontend (Level 6)-> FLAC
Taper: Chris Imburgia

01. The Righteous Path
02. Where the Devil Don't Stay
03. That Man I Shot
04. Self-Destructive Zones
05. Two Daughters and a Beautiful Wife
06. Daddy Needs a Drink
07. 3 Dimes Down
08. Putting People on the Moon
09. Hell No, I Ain't Happy
10. Checkout Time in Vegas
11. The Living Bubba
12. I'm Sorry Huston
13. Carl Perkins' Cadillac
14. Sink Hole
15. A Ghost To Most
16. You and Your Crystal Meth
17. Goodes Field Road
18. Women Without Whiskey
19. Let There Be Rock
20. E: Shut Up and Get on The Plane
21. E: Rebels
22. E: Zip City
23. E: 18 Wheels of Love
24. E: Lookout Mountain
25. E: People Who Died


Sector Boundary Verification
--------------------------------------
  length     expanded size   cdr  WAVE problems filename
     4:40.70       49556684    ---   --   ---xx   dbt2008-03-26t01.flac
     5:27.13       57713420    ---   --   ---xx   dbt2008-03-26t02.flac
     5:54.66       62600876    ---   --   ---xx   dbt2008-03-26t03.flac
     5:26.01       57508796    ---   --   ---xx   dbt2008-03-26t04.flac
     3:53.30       41171804    ---   --   ---xx   dbt2008-03-26t05.flac
     4:38.08       49058060    ---   --   ---xx   dbt2008-03-26t06.flac
     3:07.24       33043292    ---   --   ---xx   dbt2008-03-26t07.flac
     6:38.22       70258988    ---   --   ---xx   dbt2008-03-26t08.flac
     6:47.58       71931260    ---   --   ---xx   dbt2008-03-26t09.flac
     2:48.64       29785772    ---   --   ---xx   dbt2008-03-26t10.flac
     6:46.18       71660780    ---   --   ---xx   dbt2008-03-26t11.flac
     3:43.01       39339596    ---   --   ---xx   dbt2008-03-26t12.flac
     5:42.68       60488780    ---   --   ---xx   dbt2008-03-26t13.flac
     4:41.03       49575500    ---   --   ---xx   dbt2008-03-26t14.flac
     4:42.16       49782476    ---   --   ---xx   dbt2008-03-26t15.flac
     5:38.36       59707916    ---   --   ---xx   dbt2008-03-26t16.flac
     5:52.33       62170460    ---   --   ---xx   dbt2008-03-26t17.flac
     4:29.66       47606876    ---   --   ---xx   dbt2008-03-26t18.flac
    12:26.66      131749676    ---   --   ---xx   dbt2008-03-26t19.flac
     4:24.31       46642556    ---   --   ---xx   dbt2008-03-26t20.flac
     5:07.59       54293612    ---   --   ---xx   dbt2008-03-26t21.flac
     5:22.17       56840828    ---   --   ---xx   dbt2008-03-26t22.flac
    12:08.21      128468636    ---   --   ---xx   dbt2008-03-26t23.flac
     4:55.59       52176812    ---   --   ---xx   dbt2008-03-26t24.flac
     6:12.12       65649068    ---   --   ---xx   dbt2008-03-26t25.flac
   141:36.37     1498782524 B                     (totals for 25 files, 0.5520 overall compression ratio)
Show Checksums
ffp
dbt2008-03-26t25.flac:9d6a789957c941662e5e90cf4da9b50f
dbt2008-03-26t01.flac:272ba11685f433c18eacdbd7f59a2182
dbt2008-03-26t02.flac:f8c71a1b4e33d22a429696553f54ec1a
dbt2008-03-26t03.flac:fc04624fb62058a1748d89a75c42453e
dbt2008-03-26t04.flac:6d9fd3f09ef0803d4225cf18b6cc4660
dbt2008-03-26t05.flac:dd3a66da31aaa13fe46d2ce6a73c35a5
dbt2008-03-26t06.flac:06dadf8d1756c7b03191a7cd3055a1cf
dbt2008-03-26t07.flac:a72f31d3c46a0af135a43d12e5cbf242
dbt2008-03-26t08.flac:9cee11fbb0d8f53e8be5fe15cf3e4281
dbt2008-03-26t09.flac:2d4a7b6aaf209c3ff0f4a5b16353b3aa
dbt2008-03-26t10.flac:7eadb54a6ef64feac3ad99039edb8056
dbt2008-03-26t11.flac:75d68ad5ee3dfd582ca56a33c78755af
dbt2008-03-26t12.flac:010e303e458ad83df3d920e08fe887e7
dbt2008-03-26t13.flac:73d7424e3d076b5f93a30b7a3969f39f
dbt2008-03-26t14.flac:98f2e27677ba892d7f0367bcf4c05cc8
dbt2008-03-26t15.flac:23136d1e102e4a5e2ae71b6d1fb75198
dbt2008-03-26t16.flac:66a0f089e4a57209fabd9ff893c10fca
dbt2008-03-26t17.flac:c2991d0e05af76b7097b01ee3e4b754e
dbt2008-03-26t18.flac:758372920ff9ce94b1c99b6d7834a839
dbt2008-03-26t19.flac:8bc171c80f61259dd9ba3bca0e31b16c
dbt2008-03-26t20.flac:7fb5abc44fceec3d9feb222aa6c9ac0b
dbt2008-03-26t21.flac:48a43026e489b8f09b73ff99465157bb
dbt2008-03-26t22.flac:e7b700f879d3f0e01258fc40586625a9
dbt2008-03-26t23.flac:d3d0b216e231a7ff8ce7335830fbd64d
dbt2008-03-26t24.flac:02daf6175797103caa37179a585a165d

Comments
Add Comment
Date User Comment