Browse Collections Artists Sources   Search Dates

Add Show    List Management    Help


Ween 01/29/08
Tabernacle, Atlanta, GA
Comments Add Comment    Source Collectors    Add to Collection    Add to Want List    History
Source # 103767 Other Sources
Entered by Greg Yurkovic
Checksums ffp
Disc Counts 2 / 2
Media Size
Date Circulated
Date Added
01/31/08
12/17/2009
Source Summary flac16: [Neumann ak40(NOS) > lc3 > km100(mic in)] + [Neumann ak50(mid) + ak20(side) > lc3 > km100 > Lunatec V3(analog out)] > Sound Devices 744t @ 24/48 > Firewire > WaveLab 5.01a > CDWave > FLAC 
Source Information - Download Text | Download Zip
Ween
The Tabernacle
Atlanta, GA
January 29, 2008

Source: [Neumann ak40(NOS) > lc3 > km100(mic in)] + [Neumann ak50(mid) + ak20(side) > lc3 > km100 > Lunatec V3(analog out)] > Sound Devices 744t @ 24/48
Location: dfc, clamped to balcony rail
Transfer: 744t > Firewire > WaveLab 5.01a > CDWave > FLAC(level 6)

Dithered/Resampled(16/44.1), Mixed(4 channels), & Fades Added in WaveLab
Tracked in CDWave

Taped, Transferred, & Seeded by D.P. Swint

Disc 1
01. Ice Castles
02. Aids
03. Golden Eel
04. The Stallion Pt. 3
05. Bananas and Blow
06. Learnin' to Love
07. Voodoo Lady
08. Zoloft
09. Transdermal Celebration
10. Take Me Away
11. Stroker Ace
12. Object
13. Buckingham Green
14. My Own Bare Hands
15. Your Party
16. Laura

Disc 2
01. Piss Up a Rope
02. Don't Squeal on the Pusher
03. Touch My Tooter
04. Mr. Would You Please Help My Pony
05. Woman and Man
06. Can't Put My Finger On It
07. Ocean Man
08. The Mollusk
09. El Camino
10. Buenos Tardes

Encore:
11. crowd
12. Fiesta
13. Puerto Rican Power
14. Dr. Rock
15. Someday

********************************************************
FLAC Fingerprints

ween2008-01-29d1t01.flac:0e1013e8a4b393229c151e92d9c30d3e
ween2008-01-29d1t02.flac:41b06b49a6f00ec6613caaff3cdfc05f
ween2008-01-29d1t03.flac:3d3efc93782f676b4edd0269f4b5c216
ween2008-01-29d1t04.flac:b34346daadd0afc3076fe890841594af
ween2008-01-29d1t05.flac:fa323e465b861cec7825ecd0f44bea67
ween2008-01-29d1t06.flac:cf6f8ef216a51039d295afe17e87acc7
ween2008-01-29d1t07.flac:037b8602aac459b53cf668e1684a5892
ween2008-01-29d1t08.flac:060526b278b521f98cedad288ae2a70c
ween2008-01-29d1t09.flac:9da12a323322132c7d01694a1381a3df
ween2008-01-29d1t10.flac:3b65f3dbba499e3457264f3f02ce8aa0
ween2008-01-29d1t11.flac:59916a86a45eeb138e44ac6c9686937d
ween2008-01-29d1t12.flac:4b8fa12e8dd83281d7225e459be70dc6
ween2008-01-29d1t13.flac:88393d8427d4ed58aee054b6f6a75ac2
ween2008-01-29d1t14.flac:be0d79aad333cc4d37ee32ff6669c539
ween2008-01-29d1t15.flac:107a3a7fca7900fc04fbaae02157a5f6
ween2008-01-29d1t16.flac:77b717cc47e60533bb565a493c3fb957
ween2008-01-29d2t01.flac:8a820ed853602c10d7a2c0ce85491ef7
ween2008-01-29d2t02.flac:1ef3e7227a501458243b38075c1e100a
ween2008-01-29d2t03.flac:1549dd8178718378e8853c2761f1468c
ween2008-01-29d2t04.flac:17afebea4d7eff4ca8b7bb13835c3cf8
ween2008-01-29d2t05.flac:032763f94e3a8e2deadc4d974125070b
ween2008-01-29d2t06.flac:2a5d4570bb9e878a6e412fa0e3b32bc0
ween2008-01-29d2t07.flac:5cf9e56fb495d66d73dcd7dc2a16d31c
ween2008-01-29d2t08.flac:4574f1ae0f649f5b019427ee3fd83a01
ween2008-01-29d2t09.flac:3d03afb43f568f8a76d0a81e2ec2bbd8
ween2008-01-29d2t10.flac:d49e910b6bf0e809acd9994e38052590
ween2008-01-29d2t11.flac:bb4501cf6d826f584693df0f3e6faa2a
ween2008-01-29d2t12.flac:e2fc55c3351d31cc5da97f7257859319
ween2008-01-29d2t13.flac:1380e2b135c22f3fdbfe213b2d39a0ab
ween2008-01-29d2t14.flac:8e239ea9a369b73cd93cdbdf76b03d62
ween2008-01-29d2t15.flac:9c1841325835b7bea0ee509d9edd0310

********************************************************
SHNtool Output

    length     expanded size   cdr  WAVE problems filename
     4:04.56       43173356    ---   --   ---xx   ween2008-01-29d1t01.flac
     1:56.05       20474204    ---   --   ---xx   ween2008-01-29d1t02.flac
     5:48.27       61450748    ---   --   ---xx   ween2008-01-29d1t03.flac
     3:32.05       37408604    ---   --   ---xx   ween2008-01-29d1t04.flac
     4:16.51       45278396    ---   --   ---xx   ween2008-01-29d1t05.flac
     3:15.53       34522700    ---   --   ---xx   ween2008-01-29d1t06.flac
     9:34.47      101364188    ---   --   ---xx   ween2008-01-29d1t07.flac
     7:57.25       84201644    ---   --   ---xx   ween2008-01-29d1t08.flac
     4:30.50       47745644    ---   --   ---xx   ween2008-01-29d1t09.flac
     3:32.10       37420364    ---   --   ---xx   ween2008-01-29d1t10.flac
     3:04.07       32474108    ---   --   ---xx   ween2008-01-29d1t11.flac
     3:48.49       40334492    ---   --   ---xx   ween2008-01-29d1t12.flac
     4:53.03       51692300    ---   --   ---xx   ween2008-01-29d1t13.flac
     4:12.13       44483420    ---   --   ---xx   ween2008-01-29d1t14.flac
     4:24.69       46731932    ---   --   ---xx   ween2008-01-29d1t15.flac
     9:33.06      101091356    ---   --   ---xx   ween2008-01-29d1t16.flac
     3:42.56       39292556    ---   --   ---xx   ween2008-01-29d2t01.flac
    11:56.05      126314204    ---   --   ---xx   ween2008-01-29d2t02.flac
     3:52.49       41040092    ---   --   ---xx   ween2008-01-29d2t03.flac
     3:42.49       39276092    ---   --   ---xx   ween2008-01-29d2t04.flac
     7:07.20       75369884    ---   --   ---xx   ween2008-01-29d2t05.flac
     9:12.35       97455164    ---   --   ---xx   ween2008-01-29d2t06.flac
     4:02.73       42860540    ---   --   ---xx   ween2008-01-29d2t07.flac
     4:10.72       44269388    ---   --   ---xx   ween2008-01-29d2t08.flac
     3:27.13       36545420    ---   --   ---xx   ween2008-01-29d2t09.flac
     8:34.42       90768428    ---   --   ---xx   ween2008-01-29d2t10.flac
     6:18.30       66749804    ---   --   ---xx   ween2008-01-29d2t11.flac
     2:26.55       25883804    ---   --   ---xx   ween2008-01-29d2t12.flac
     1:57.71       20805836    ---   --   ---xx   ween2008-01-29d2t13.flac
     3:22.12       35661068    ---   --   ---xx   ween2008-01-29d2t14.flac
     4:15.46       45090236    ---   --   ---xx   ween2008-01-29d2t15.flac
   156:34.54     1657229972 B                     (totals for 31 files, 0.5535 overall compression ratio)
Show Checksums
ffp
ween2008-01-29d1t01.flac:0e1013e8a4b393229c151e92d9c30d3e
ween2008-01-29d1t02.flac:41b06b49a6f00ec6613caaff3cdfc05f
ween2008-01-29d1t03.flac:3d3efc93782f676b4edd0269f4b5c216
ween2008-01-29d1t04.flac:b34346daadd0afc3076fe890841594af
ween2008-01-29d1t05.flac:fa323e465b861cec7825ecd0f44bea67
ween2008-01-29d1t06.flac:cf6f8ef216a51039d295afe17e87acc7
ween2008-01-29d1t07.flac:037b8602aac459b53cf668e1684a5892
ween2008-01-29d1t08.flac:060526b278b521f98cedad288ae2a70c
ween2008-01-29d1t09.flac:9da12a323322132c7d01694a1381a3df
ween2008-01-29d1t10.flac:3b65f3dbba499e3457264f3f02ce8aa0
ween2008-01-29d1t11.flac:59916a86a45eeb138e44ac6c9686937d
ween2008-01-29d1t12.flac:4b8fa12e8dd83281d7225e459be70dc6
ween2008-01-29d1t13.flac:88393d8427d4ed58aee054b6f6a75ac2
ween2008-01-29d1t14.flac:be0d79aad333cc4d37ee32ff6669c539
ween2008-01-29d1t15.flac:107a3a7fca7900fc04fbaae02157a5f6
ween2008-01-29d1t16.flac:77b717cc47e60533bb565a493c3fb957
ween2008-01-29d2t01.flac:8a820ed853602c10d7a2c0ce85491ef7
ween2008-01-29d2t02.flac:1ef3e7227a501458243b38075c1e100a
ween2008-01-29d2t03.flac:1549dd8178718378e8853c2761f1468c
ween2008-01-29d2t04.flac:17afebea4d7eff4ca8b7bb13835c3cf8
ween2008-01-29d2t05.flac:032763f94e3a8e2deadc4d974125070b
ween2008-01-29d2t06.flac:2a5d4570bb9e878a6e412fa0e3b32bc0
ween2008-01-29d2t07.flac:5cf9e56fb495d66d73dcd7dc2a16d31c
ween2008-01-29d2t08.flac:4574f1ae0f649f5b019427ee3fd83a01
ween2008-01-29d2t09.flac:3d03afb43f568f8a76d0a81e2ec2bbd8
ween2008-01-29d2t10.flac:d49e910b6bf0e809acd9994e38052590
ween2008-01-29d2t11.flac:bb4501cf6d826f584693df0f3e6faa2a
ween2008-01-29d2t12.flac:e2fc55c3351d31cc5da97f7257859319
ween2008-01-29d2t13.flac:1380e2b135c22f3fdbfe213b2d39a0ab
ween2008-01-29d2t14.flac:8e239ea9a369b73cd93cdbdf76b03d62
ween2008-01-29d2t15.flac:9c1841325835b7bea0ee509d9edd0310

Comments
Add Comment
Other Sources (comments)
flac16: Schoeps... (0) flac16: AKG... (0)
Date User Comment